img image001 image001 image001 image001 image001 image001 image001 image001 image001 image001 image001 image001 image001 image001 image001

Planets Sun Sun Sun
Статистика раздачи
Автор: Снежана | Размер: 745.15 МБ | Добавлен: 24 июл 2013
Раздают: 3    Качают: 2
Скачать торрент
Скачать торрент
Описание торрента

СообщениеДобавлено: 24 июл 2013 

#77
Страна: Россия
Жанр: детектив
Год выпуска: 2007
Продолжительность: 01:43:55

Перевод: Не требуется
Cубтитры: нет
Оригинальная аудиодорожка: русский

Режиссеры: Валерий Ахадов

В ролях: Александр Домогаров, Мария Голубкина, Лариса Голубкина, Игорь Воробьев, Игорь Гордин, Александр Комиссаров...

Описание: Максим Ильин, эксперт в области живописи, консультант модных журналов, одиночка и мизантроп, соглашается позировать юной художнице. Они договариваются о встрече, но в назначенный день девушка не приходит. Зато вскоре Максим встречает ее в казино в обществе своего старого приятеля, известного банкира. Бедная художница выглядит как светская львица.
Банкир приходит вместе с ней к Максиму в гости, теперь она в образе манерной ценительницы искусства. На следующий день выясняется, что дом банкира ограблен. Ильина вызывают в прокуратуру, где в форме следователя его встречает все та же таинственная незнакомка. Максим понимает, что это далеко не последнее ее превращение…





Исходник: DVD9 R5
Тип релиза: DVDRip
Контейнер: AVI

Видео: 640x352 (16:9), 25 fps, XviD ~ 865 kbps avg, 0.154 bit/pixel
Аудио: 48 kHz, MP3, 2 ch, 128.00 kbps

Раздача от:
Общее
Полное имя : Zhivopisnaja.avantjura.2007.DVDRip_[Youtracker]_by_AVP Studio.avi
Формат : AVI
Формат/Информация : Audio Video Interleave
Размер файла : 745 Мбайт
Продолжительность : 1 ч. 43 м.
Общий поток : 1003 Кбит/сек
Программа кодирования : VirtualDubMod 1.5.10.3 | www.virtualdub-fr.org || (build 2550/release)
Библиотека кодирования : VirtualDubMod build 2550/release

Видео
Идентификатор : 0
Формат : MPEG-4 Visual
Профиль формата : Advanced Simple@L5
Параметр BVOP формата : 1
Параметр QPel формата : Нет
Параметр GMC формата : Без точки перехода
Параметр матрицы формата : Выборочная
Идентификатор кодека : XVID
Идентификатор кодека/Подсказка : XviD
Продолжительность : 1 ч. 43 м.
Битрейт : 865 Кбит/сек
Ширина : 640 пикселей
Высота : 352 пикселя
Соотношение сторон : 16:9
Частота кадров : 25,000 кадров/сек
Цветовое пространство : YUV
Субдискретизация насыщенности : 4:2:0
Битовая глубина : 8 бит
Тип развёртки : Прогрессивная
Метод сжатия : С потерями
Бит/(Пиксели*Кадры) : 0.154
Размер потока : 643 Мбайт (86%)
Библиотека кодирования : XviD 65

Аудио
Идентификатор : 1
Формат : MPEG Audio
Версия формата : Version 1
Профиль формата : Layer 3
Идентификатор кодека : 55
Идентификатор кодека/Подсказка : MP3
Продолжительность : 1 ч. 43 м.
Вид битрейта : Постоянный
Битрейт : 128 Кбит/сек
Каналы : 2 канала
Частота : 48,0 КГц
Метод сжатия : С потерями
Размер потока : 95,1 Мбайт (13%)
Выравнивание : Соединение по промежуткам
Продолжительность промежутка : 40 мс. (1,00 видеокадр)
Время предзагрузки промежутка : 504 мс.
Библиотека кодирования : L3.99r
Настройки программы : -m s -V 4 -q 2 -lowpass 17 -b 128





   Похожие торренты   Торрент   Размер 
В этой теме нет новых непрочитанных сообщений. Живописная авантюра (2007) DVDRip-AVC от Youtracker

4 | 2

1.46 ГБ

В этой теме нет новых непрочитанных сообщений. Живописная авантюра (2007) DVD9 от Youtracker

2 | 2

6.61 ГБ

В этой теме нет новых непрочитанных сообщений. Живописная авантюра (2007) DVDRip от Киномагия

1 | 2

1.37 ГБ

В этой теме нет новых непрочитанных сообщений. Авантюра (1995) DVDRip

15 | 8

1.37 ГБ

В этой теме нет новых непрочитанных сообщений. Ричард Старк (Дональд Уэстлейк) – Паркер 08. Авантюра (2016) MP3

32 | 0

328.54 МБ

В этой теме нет новых непрочитанных сообщений. Антиснайпер [01-04 из 4] (2007, 2010) DVDRip от Youtracker

40 | 9

5.83 ГБ

В этой теме нет новых непрочитанных сообщений. Пожарный пес / Firehouse Dog (2007) DVDRip от Youtracker | P

3 | 2

2.19 ГБ




Вы не можете начинать темы
Вы не можете отвечать на сообщения
Вы не можете редактировать свои сообщения
Вы не можете удалять свои сообщения
Вы не можете добавлять вложения

Перейти:  
Для Мосгорсуда, Роскомнадзора и рекламодателей: mosgorsud-torrent[собачка]yandex.ru
 Вход
ppkBB3cker v.2 © 2008-2014 @ PPK
[ Time : 0.510s | 14 Queries | GZIP : Off ]

Торрент трекер RUTOR.IN, Не можете зайти на rutor.org? Какой новый адрес рутор? Какое зеркало рутор? Не работает rutor.org и зеркала? Тогда наш торрент специально для вас. Rutor.in неофициальное зеркало rutor. В случае если у Вас заблокирован rutor или вдруг Вы не можете на него зайти, то Вы без труда сможете скачать бесплатно и без рекламы последние новинки кино, игр, сериалов и прочего у нас, на Rutor.in. Не нужно использовать прокси, чтобы зайти на рутор, достаточно воспользоваться нашим ресурсом. Все новые фильмы, игры, сериалы, книги и музыка за 2013 и 2014 годы через торрент бесплатно. Скачивайте фильмы в хорошем качестве, игры для пк, xbox, playstation без регистрации. У нас вы найдете новые Зарубежные сериалы и Русские сериалы 2013, 2014, 2015 годов. Оставайтесь с нами, качайте любимые фильмы, игры, сериалы, книги и музыку.