img image001 image001 image001 image001 image001 image001 image001 image001 image001 image001 image001 image001 image001 image001 image001

Planets Sun Sun Sun
Статистика раздачи
Автор: Снежана | Размер: 1.46 ГБ | Добавлен: 24 июл 2013
Раздают: 4    Качают: 2
Скачать торрент
Скачать торрент
Описание торрента

СообщениеДобавлено: 24 июл 2013 

#77
Страна: Россия
Жанр: детектив
Год выпуска: 2007
Продолжительность: 01:43:55

Перевод: Не требуется
Cубтитры: нет
Оригинальная аудиодорожка: русский

Режиссеры: Валерий Ахадов

В ролях: Александр Домогаров, Мария Голубкина, Лариса Голубкина, Игорь Воробьев, Игорь Гордин, Александр Комиссаров...

Описание: Максим Ильин, эксперт в области живописи, консультант модных журналов, одиночка и мизантроп, соглашается позировать юной художнице. Они договариваются о встрече, но в назначенный день девушка не приходит. Зато вскоре Максим встречает ее в казино в обществе своего старого приятеля, известного банкира. Бедная художница выглядит как светская львица.
Банкир приходит вместе с ней к Максиму в гости, теперь она в образе манерной ценительницы искусства. На следующий день выясняется, что дом банкира ограблен. Ильина вызывают в прокуратуру, где в форме следователя его встречает все та же таинственная незнакомка. Максим понимает, что это далеко не последнее ее превращение…





Исходник: DVD9 R5
Тип релиза: DVDRip-AVC
Контейнер: MKV

Видео: 720x426@752х426 (16:9), 25 fps, H264 ~ 1556 kbps avg, 0.203 bit/pixel
Аудио: 48 kHz, AC3, 6 ch, 448.00 kbps

Раздача от:
Общее
Полное имя : Zhivopisnaja.avantjura.2007.DVDRip-AVC.mkv
Формат : Matroska
Версия формата : Version 2
Размер файла : 1,46 Гбайт
Продолжительность : 1 ч. 43 м.
Общий поток : 2005 Кбит/сек
Дата кодирования : UTC 2012-10-24 05:45:27
Программа кодирования : mkvmerge v5.0.1 ('Es ist Sommer') built on Nov 6 2011 16:23:40
Библиотека кодирования : libebml v1.2.2 + libmatroska v1.3.0

Видео
Идентификатор : 1
Формат : AVC
Формат/Информация : Advanced Video Codec
Профиль формата : High@L4.1
Параметр CABAC формата : Да
Параметр ReFrames формата : 11 кадров
Идентификатор кодека : V_MPEG4/ISO/AVC
Продолжительность : 1 ч. 43 м.
Битрейт : 1556 Кбит/сек
Ширина : 720 пикселей
Высота : 426 пикселей
Соотношение сторон : 16:9
Соотношение сторон в оригинале : 16:9
Частота кадров : 25,000 кадров/сек
Цветовое пространство : YUV
Субдискретизация насыщенности : 4:2:0
Битовая глубина : 8 бит
Тип развёртки : Прогрессивная
Бит/(Пиксели*Кадры) : 0.203
Размер потока : 1,10 Гбайт (76%)
Библиотека кодирования : x264 core 119 r2106 07efeb4
Настройки программы : cabac=1 / ref=11 / deblock=1:-2:-1 / analyse=0x3:0x113 / me=umh / subme=9 / psy=1 / psy_rd=1.00:0.20 / mixed_ref=1 / me_range=32 / chroma_me=1 / trellis=1 / 8x8dct=1 / cqm=0 / deadzone=21,11 / fast_pskip=0 / chroma_qp_offset=-3 / threads=3 / sliced_threads=0 / nr=0 / decimate=0 / interlaced=0 / bluray_compat=0 / constrained_intra=0 / bframes=8 / b_pyramid=2 / b_adapt=2 / b_bias=0 / direct=3 / weightb=1 / open_gop=0 / weightp=2 / keyint=250 / keyint_min=25 / scenecut=40 / intra_refresh=0 / rc_lookahead=60 / rc=2pass / mbtree=1 / bitrate=1556 / ratetol=1.0 / qcomp=0.60 / qpmin=0 / qpmax=69 / qpstep=4 / cplxblur=20.0 / qblur=0.5 / ip_ratio=1.40 / aq=1:1.00
Default : Да
Forced : Нет

Аудио
Идентификатор : 2
Формат : AC-3
Формат/Информация : Audio Coding 3
Расширение режима : CM (complete main)
Идентификатор кодека : A_AC3
Продолжительность : 1 ч. 43 м.
Вид битрейта : Постоянный
Битрейт : 448 Кбит/сек
Каналы : 2 канала
Расположение каналов : Front: L R
Частота : 48,0 КГц
Битовая глубина : 16 бит
Метод сжатия : С потерями
Размер потока : 333 Мбайт (22%)
Default : Да
Forced : Нет





   Похожие торренты   Торрент   Размер 
В этой теме нет новых непрочитанных сообщений. Живописная авантюра (2007) DVDRip от Youtracker

3 | 2

745.15 МБ

В этой теме нет новых непрочитанных сообщений. Живописная авантюра (2007) DVD9 от Youtracker

2 | 2

6.61 ГБ

В этой теме нет новых непрочитанных сообщений. Живописная авантюра (2007) DVDRip от Киномагия

1 | 2

1.37 ГБ

В этой теме нет новых непрочитанных сообщений. Авантюра (1995) DVDRip

15 | 8

1.37 ГБ

В этой теме нет новых непрочитанных сообщений. Ричард Старк (Дональд Уэстлейк) – Паркер 08. Авантюра (2016) MP3

31 | 0

328.54 МБ

В этой теме нет новых непрочитанных сообщений. Антонина обернулась (2007) DVDRip от Youtracker

0 | 3

1.46 ГБ

В этой теме нет новых непрочитанных сообщений. Антиснайпер [01-04 из 4] (2007, 2010) DVDRip от Youtracker

40 | 9

5.83 ГБ




Вы не можете начинать темы
Вы не можете отвечать на сообщения
Вы не можете редактировать свои сообщения
Вы не можете удалять свои сообщения
Вы не можете добавлять вложения

Перейти:  
Для Мосгорсуда, Роскомнадзора и рекламодателей: mosgorsud-torrent[собачка]yandex.ru
 Вход
ppkBB3cker v.2 © 2008-2014 @ PPK
[ Time : 0.558s | 14 Queries | GZIP : Off ]

Торрент трекер RUTOR.IN, Не можете зайти на rutor.org? Какой новый адрес рутор? Какое зеркало рутор? Не работает rutor.org и зеркала? Тогда наш торрент специально для вас. Rutor.in неофициальное зеркало rutor. В случае если у Вас заблокирован rutor или вдруг Вы не можете на него зайти, то Вы без труда сможете скачать бесплатно и без рекламы последние новинки кино, игр, сериалов и прочего у нас, на Rutor.in. Не нужно использовать прокси, чтобы зайти на рутор, достаточно воспользоваться нашим ресурсом. Все новые фильмы, игры, сериалы, книги и музыка за 2013 и 2014 годы через торрент бесплатно. Скачивайте фильмы в хорошем качестве, игры для пк, xbox, playstation без регистрации. У нас вы найдете новые Зарубежные сериалы и Русские сериалы 2013, 2014, 2015 годов. Оставайтесь с нами, качайте любимые фильмы, игры, сериалы, книги и музыку.