img image001 image001 image001 image001 image001 image001 image001 image001 image001 image001 image001 image001 image001 image001 image001

Planets Sun Sun Sun
Статистика раздачи
Автор: Снежана | Размер: 2.9 ГБ | Добавлен: 24 июл 2013
Раздают: 26    Качают: 3
Скачать торрент
Скачать торрент
Описание торрента

СообщениеДобавлено: 24 июл 2013 

#77

Информация о фильме
Название: Мужчина с гарантией
Год выхода: 2012
Жанр: Романтическкая комедия, семейный
Режиссер: Артем Аксененко
В ролях: Нонна Гришаева, Александр Олешко, Дмитрий Нагиев, Пётр Фёдоров, Михаил Павлик, Дмитрий Шаракоис, Юрий Никулин (младший), Юлия Гришина, Сергей Походаев, Андрей Федорцов, Ольга Волкова, Иван Руденко

О фильме:
В одном большом и любимом горожанами торговом центре работает охранником необычный человек. Он помогает всем вокруг: продавцам общепита и модной одежды, уборщикам и барменам в кафетерии. Он знает всё и всех, и все знают и любят его! Он словно домовой в этом огромном здании с миллионом неоновых вывесок и ярких стеклянных витрин. Ведь здесь он не только работает, но и живет полноценной жизнью — бесплатно одевается, питается в ресторанах, спит в мебельном отделе и участвует в ночных гонках на полотерах. «Какой странный персонаж!» — подумаете вы. На самом деле, у нашего героя есть хрустальная и загадочная мечта, на осуществление которой он старательно копит деньги на «зарплатной» банковской карте. Однажды в его жизни появляется стажерка, которую необходимо обучить всему, что умеет он сам. Отношения, начавшиеся как обременительная обязанность, постепенно начинают перерастать дружеские. Ну а дружба между мужчиной и женщиной вещь весьма специфическая, тут и до романтики недалеко! Однако, герой не знает одной важной детали: эта его «коллега» — владелица всего торгового центра.

General
Complete name : C:DownloadsMuzhchina s garantiej.2012.O.BDRip.720p.mkv
Format : Matroska
File size : 2.90 GiB
Duration : 1h 24mn
Overall bit rate : 4 928 Kbps
Movie name : IRONCLUB
Encoded date : UTC 2012-10-24 15:14:38
Writing application : mkvmerge v4.9.1 ('Ich will') сборка от Jul 11 2011 23:53:15
Writing library : libebml v1.2.1 + libmatroska v1.1.1

Video
ID : 1
Format : AVC
Format/Info : Advanced Video Codec
Format profile : High@L4.1
Format settings, CABAC : Yes
Format settings, ReFrames : 12 frames
Muxing mode : Container profile=Unknown@4.1
Codec ID : V_MPEG4/ISO/AVC
Duration : 1h 24mn
Bit rate : 3 320 Kbps
Width : 1 280 pixels
Height : 544 pixels
Display aspect ratio : 2.35:1
Frame rate : 23.976 fps
Color space : YUV
Chroma subsampling : 4:2:0
Bit depth : 8 bits
Scan type : Progressive
Bits/(Pixel*Frame) : 0.199
Stream size : 1.95 GiB (67%)
Title : Muzhchina s garantiej 2012 720p BluRay DTS x264-IRONCLUB
Writing library : x264 core 128 r2216 198a7ea
Encoding settings : cabac=1 / ref=12 / deblock=1:-3:-3 / analyse=0x3:0x113 / me=umh / subme=10 / psy=1 / psy_rd=1.00:0.00 / mixed_ref=1 / me_range=32 / chroma_me=1 / trellis=2 / 8x8dct=1 / cqm=0 / deadzone=21,11 / fast_pskip=0 / chroma_qp_offset=-2 / threads=12 / lookahead_threads=2 / sliced_threads=0 / nr=0 / decimate=1 / interlaced=0 / bluray_compat=0 / constrained_intra=0 / bframes=7 / b_pyramid=2 / b_adapt=2 / b_bias=0 / direct=3 / weightb=1 / open_gop=0 / weightp=2 / keyint=250 / keyint_min=23 / scenecut=40 / intra_refresh=0 / rc_lookahead=40 / rc=crf / mbtree=0 / crf=17.0 / qcomp=0.80 / qpmin=10 / qpmax=69 / qpstep=4 / vbv_maxrate=50000 / vbv_bufsize=62500 / crf_max=0.0 / nal_hrd=none / ip_ratio=1.30 / pb_ratio=1.10 / aq=2:0.75
Language : Russian
Matrix coefficients : BT.709-5, BT.1361, IEC 61966-2-4 709, SMPTE RP177

Audio
ID : 2
Format : DTS
Format/Info : Digital Theater Systems
Codec ID : A_DTS
Duration : 1h 24mn
Bit rate mode : Constant
Bit rate : 1 510 Kbps
Channel(s) : 6 channels
Channel positions : Front: L C R, Side: L R, LFE
Sampling rate : 48.0 KHz
Bit depth : 24 bits
Stream size : 909 MiB (31%)
Title : DTS 5.1 @ 1536 kbps
Language : Russian

Menu
00:00:00.000 : ru:Chapter 01
00:07:36.455 : ru:Chapter 02
00:15:28.677 : ru:Chapter 03
00:20:24.181 : ru:Chapter 04
00:27:58.426 : ru:Chapter 05
00:33:24.544 : ru:Chapter 06
00:43:15.593 : ru:Chapter 07
00:48:15.058 : ru:Chapter 08
00:59:25.103 : ru:Chapter 09
01:05:33.095 : ru:Chapter 10
01:13:27.277 : ru:Chapter 11
01:21:28.300 : ru:Chapter 12




Страна: Россия
Студия: Enjoy Movies
Продолжительность: 01:24:11
Перевод: Оригинальный

Файл
Кодек: H264
Качество: BDRip 720p
Видео: MPEG4 Video (H264) 1280x544 23.98fps 3320 kb/s
Звук: Русский (DTS, 48000Hz, 6ch)
Субтитры: Отсутствуют

Семпл



Релиз от:



   Похожие торренты   Торрент   Размер 
В этой теме нет новых непрочитанных сообщений. Мужчина с гарантией (2012) BDRip-AVC | Лицензия

8 | 3

1.45 ГБ

В этой теме нет новых непрочитанных сообщений. Мужчина с гарантией (2012) BDRip-AVC от HELLYWOOD | Лицензия

127 | 7

1.46 ГБ

В этой теме нет новых непрочитанных сообщений. Мужчина с гарантией (2012) BDRip от HQCLUB | Лицензия

1005 | 44

1.45 ГБ

В этой теме нет новых непрочитанных сообщений. Мужчина с гарантией (2012) DVDRip | КПК | Лицензия

8 | 3

364.22 МБ

В этой теме нет новых непрочитанных сообщений. Мужчина с гарантией (2012) DVD5 | Лицензия

2 | 2

4.34 ГБ

В этой теме нет новых непрочитанных сообщений. Мужчина с гарантией (2012) DVDRip от Scarabey | Лицензия

46 | 3

1.45 ГБ

В этой теме нет новых непрочитанных сообщений. Мужчина с гарантией (2012) DVDRip от Scarabey | Лицензия

16 | 3

741.19 МБ




Вы не можете начинать темы
Вы не можете отвечать на сообщения
Вы не можете редактировать свои сообщения
Вы не можете удалять свои сообщения
Вы не можете добавлять вложения

Перейти:  
Для Мосгорсуда, Роскомнадзора и рекламодателей: mosgorsud-torrent[собачка]yandex.ru
 Вход
ppkBB3cker v.2 © 2008-2014 @ PPK
[ Time : 0.033s | 15 Queries | GZIP : Off ]

Торрент трекер RUTOR.IN, Не можете зайти на rutor.org? Какой новый адрес рутор? Какое зеркало рутор? Не работает rutor.org и зеркала? Тогда наш торрент специально для вас. Rutor.in неофициальное зеркало rutor. В случае если у Вас заблокирован rutor или вдруг Вы не можете на него зайти, то Вы без труда сможете скачать бесплатно и без рекламы последние новинки кино, игр, сериалов и прочего у нас, на Rutor.in. Не нужно использовать прокси, чтобы зайти на рутор, достаточно воспользоваться нашим ресурсом. Все новые фильмы, игры, сериалы, книги и музыка за 2013 и 2014 годы через торрент бесплатно. Скачивайте фильмы в хорошем качестве, игры для пк, xbox, playstation без регистрации. У нас вы найдете новые Зарубежные сериалы и Русские сериалы 2013, 2014, 2015 годов. Оставайтесь с нами, качайте любимые фильмы, игры, сериалы, книги и музыку.
cron