img image001 image001 image001 image001 image001 image001 image001 image001 image001 image001 image001 image001 image001 image001 image001

Planets Sun Sun Sun
Статистика раздачи
Автор: Снежана | Размер: 744.11 МБ | Добавлен: 24 июл 2013
Раздают: 83    Качают: 5
Скачать торрент
Скачать торрент
Описание торрента

СообщениеДобавлено: 24 июл 2013 

#77
Страна: СССР
Жанр: фэнтези, семейный, музыка
Год выпуска: 1975
Продолжительность: 01:06:39

Перевод: Не требуется
Cубтитры: русский
Оригинальная аудиодорожка: русский

Режиссеры: Геннадий Казанский, Игорь Усов

В ролях: Наташа Симонова, Юра Нахратов, Игорь Ефимов, Ирина Борисова, Николай Боярский, Михаил Боярский, Любовь Виролайнен, Валентина Кособуцкая, Георгий Штиль...

Описание: Они такие разные — младшеклассники Витя, верящий только в технику, и Маша, верящая в чудеса. Вместе с другими ребятами они украшают ёлку, но Дед Мороз поведал им, что Снегурочку похитил Кащей, чтобы устроить Новый год для своей нечисти. Маша и Витя с помощью Дед-Мороза отправляются в сказку на помощь Снегурочке. Кащей, узнав об этом, посылает им навстречу нечистую силу — вокально-инструментальную троицу «Дикие гитары»: Бабу-Ягу, Лешего и Дикого Кота Матвея…





Исходник: DVD9 R5
Тип релиза: DVDRip-AVC
Контейнер: MKV

Видео: 696x576@742х576 (1,288:1), 25 fps, H264 ~ 1431 kbps avg, 0.143 bit/pixel
Аудио: 48 kHz, AC3, 2 ch, 128.00 kbps

Раздача от:
Общее
Полное имя : Novogodnie.prikljuchenija.Mashi.i.Viti.1975.DVDRip-AVC_[Youtracker]_by_AVPStudio.mkv
Формат : Matroska
Версия формата : Version 2
Размер файла : 744 Мбайт
Продолжительность : 1 ч. 6 м.
Общий поток : 1561 Кбит/сек
Название фильма : Novogodnie.prikljuchenija.Mashi.i.Viti.1975.DVDRip-AVC_[Youtracker]_by_AVPStudio
Дата кодирования : UTC 2012-10-25 18:29:02
Программа кодирования : mkvmerge v5.8.0 ('No Sleep / Pillow') built on Sep 2 2012 15:37:04
Библиотека кодирования : libebml v1.2.3 + libmatroska v1.3.0

Видео
Идентификатор : 1
Формат : AVC
Формат/Информация : Advanced Video Codec
Профиль формата : High@L4.1
Параметр CABAC формата : Да
Параметр ReFrames формата : 11 кадров
Идентификатор кодека : V_MPEG4/ISO/AVC
Продолжительность : 1 ч. 6 м.
Битрейт : 1431 Кбит/сек
Ширина : 696 пикселей
Высота : 576 пикселей
Соотношение сторон : 1,288
Соотношение сторон в оригинале : 1,289
Частота кадров : 25,000 кадров/сек
Цветовое пространство : YUV
Субдискретизация насыщенности : 4:2:0
Битовая глубина : 8 бит
Тип развёртки : Прогрессивная
Бит/(Пиксели*Кадры) : 0.143
Размер потока : 668 Мбайт (90%)
Заголовок : Источник DVD
Библиотека кодирования : x264 core 119 r2106 07efeb4
Настройки программы : cabac=1 / ref=11 / deblock=1:-2:-1 / analyse=0x3:0x113 / me=umh / subme=9 / psy=1 / psy_rd=1.00:0.20 / mixed_ref=1 / me_range=32 / chroma_me=1 / trellis=1 / 8x8dct=1 / cqm=0 / deadzone=21,11 / fast_pskip=0 / chroma_qp_offset=-3 / threads=3 / sliced_threads=0 / nr=0 / decimate=0 / interlaced=0 / bluray_compat=0 / constrained_intra=0 / bframes=8 / b_pyramid=2 / b_adapt=2 / b_bias=0 / direct=3 / weightb=1 / open_gop=0 / weightp=2 / keyint=250 / keyint_min=25 / scenecut=40 / intra_refresh=0 / rc_lookahead=60 / rc=2pass / mbtree=1 / bitrate=1431 / ratetol=1.0 / qcomp=0.60 / qpmin=0 / qpmax=69 / qpstep=4 / cplxblur=20.0 / qblur=0.5 / ip_ratio=1.40 / aq=1:1.00
Язык : Russian
Default : Да
Forced : Нет

Аудио
Идентификатор : 2
Формат : AC-3
Формат/Информация : Audio Coding 3
Расширение режима : CM (complete main)
Идентификатор кодека : A_AC3
Продолжительность : 1 ч. 6 м.
Вид битрейта : Постоянный
Битрейт : 128 Кбит/сек
Каналы : 2 канала
Расположение каналов : Front: L R
Частота : 48,0 КГц
Битовая глубина : 16 бит
Метод сжатия : С потерями
Размер потока : 61,0 Мбайт (8%)
Заголовок : Источник DVD
Язык : Russian
Default : Да
Forced : Нет

Меню
00:00:00.000 : ru:00:00:00.000000000
00:05:00.000 : :00:05:00.000000000
00:10:00.000 : :00:10:00.000000000
00:15:00.000 : :00:15:00.000000000
00:20:00.000 : :00:20:00.000000000
00:25:00.000 : :00:25:00.000000000
00:30:00.000 : :00:30:00.000000000
00:35:00.000 : :00:35:00.000000000
00:40:00.000 : :00:40:00.000000000
00:45:00.000 : :00:45:00.000000000
00:50:00.000 : :00:50:00.000000000
00:55:00.000 : :00:55:00.000000000
01:00:00.000 : :01:00:00.000000000





   Похожие торренты   Торрент   Размер 
В этой теме нет новых непрочитанных сообщений. Новогодние приключения Маши и Вити (1975) DVD5 от Youtracker

217 | 9

4.03 ГБ

В этой теме нет новых непрочитанных сообщений. Новогодние приключения Маши и Вити (1975) DVDRip

216 | 7

699.6 МБ

В этой теме нет новых непрочитанных сообщений. Новогодние приключения Маши и Вити (1975) DVDRip

509 | 31

1.37 ГБ

В этой теме нет новых непрочитанных сообщений. Новогодние приключения Маши и Вити (1975) DVDRip

201 | 12

1.09 ГБ

В этой теме нет новых непрочитанных сообщений. Новогодние приключения Маши и Вити (1975) DVDRip

289 | 15

742.12 МБ

В этой теме нет новых непрочитанных сообщений. Приключения Маши в Стране Чудес / Yugo and Lala (2012) DVDRip от New-Team | D | лицензия

63 | 24

745.13 МБ

В этой теме нет новых непрочитанных сообщений. Приключения Маши в Стране Чудес / Yugo and Lala (2012) DVDRip от New-Team | D | лицензия

45 | 73

1.46 ГБ




Вы не можете начинать темы
Вы не можете отвечать на сообщения
Вы не можете редактировать свои сообщения
Вы не можете удалять свои сообщения
Вы не можете добавлять вложения

Перейти:  
Для Мосгорсуда, Роскомнадзора и рекламодателей: mosgorsud-torrent[собачка]yandex.ru
 Вход
ppkBB3cker v.2 © 2008-2014 @ PPK
[ Time : 0.036s | 15 Queries | GZIP : Off ]

cron