img image001 image001 image001 image001 image001 image001 image001 image001 image001 image001 image001 image001 image001 image001 image001

Planets Sun Sun Sun
Статистика раздачи
Автор: Снежана | Размер: 1.46 ГБ | Добавлен: 24 июл 2013
Раздают: 18    Качают: 3
Скачать торрент
Скачать торрент
Описание торрента

СообщениеДобавлено: 24 июл 2013 

#77

Год выпуска: 2010
Страна: Россия
Студия: Триикс Медиа

Перевод: Не требуется
Жанр: криминал
Продолжительность: 01:23:39

Режиссер: Андрей Щербинин

В ролях: Ярослав Бойко, Александр Барановский, Анна Пескова, Алексей Фокин, Полина Воробьева, Артем Анчуков, Александр Клемантович...

Описание: Олег Васильев - бывший десантник, имеет небольшой, но довольно успешный бизнес - собственный автосервис. У него есть красавица-жена Алла и лучший друг - Глеб Воронов.
Однажды в автосервис Васильева привозят дорогую иномарку. Олег ставит машину на техобслуживание, а ночью её угоняют. Владелец машины требует взамен автосервис и землю под ним. Васильеву становится понятно, что вся история с пропажей машины - хорошо поставленный спектакль, цель которого - лишить его бизнеса. Но сдаваться он не собирается.





Исходник: DVD9 R5
Качество: DVDRip
Формат: AVI

Видео: 656x384 (1.708:1), 25.000 fps, XviD MPEG-4 ~2036 kbps avg, 0.323 bit/pixel
Аудио: 48 kHz, Dolby AC3, 6 ch, 448.00 kbps Constant
Раздача от:
Общее
Полное имя : Master.2010.O.DVDRip_[Youtracker]_by_avproh.avi
Формат : AVI
Формат/Информация : Audio Video Interleave
Размер файла : 1,46 Гбайт
Продолжительность : 1 ч. 23 м.
Общий поток : 2494 Кбит/сек
Программа кодирования : VirtualDubMod 1.5.10.3 | www.virtualdub-fr.org || (build 2550/release)
Библиотека кодирования : VirtualDubMod build 2550/release

Видео
Идентификатор : 0
Формат : MPEG-4 Visual
Профиль формата : Advanced Simple@L5
Параметр BVOP формата : 1
Параметр QPel формата : Нет
Параметр GMC формата : Без точки перехода
Параметр матрицы формата : Выборочная
Идентификатор кодека : XVID
Идентификатор кодека/Подсказка : XviD
Продолжительность : 1 ч. 23 м.
Битрейт : 2036 Кбит/сек
Ширина : 656 пикселей
Высота : 384 пикселя
Соотношение сторон : 1,708
Частота кадров : 25,000 кадров/сек
Цветовое пространство : YUV
Субдискретизация насыщенности : 4:2:0
Битовая глубина : 8 бит
Тип развёртки : Прогрессивная
Метод сжатия : С потерями
Бит/(Пиксели*Кадры) : 0.323
Размер потока : 1,19 Гбайт (82%)
Библиотека кодирования : XviD 65

Аудио
Идентификатор : 1
Формат : AC-3
Формат/Информация : Audio Coding 3
Расширение режима : CM (complete main)
Параметр Endianness формата : Big
Идентификатор кодека : 2000
Продолжительность : 1 ч. 23 м.
Вид битрейта : Постоянный
Битрейт : 448 Кбит/сек
Каналы : 6 каналов
Расположение каналов : Front: L C R, Side: L R, LFE
Частота : 48,0 КГц
Битовая глубина : 16 бит
Метод сжатия : С потерями
Размер потока : 268 Мбайт (18%)
Выравнивание : Разделение по промежуткам
Продолжительность промежутка : 40 мс. (1,00 видеокадр)
Время предзагрузки промежутка : 500 мс.





   Похожие торренты   Торрент   Размер 
В этой теме нет новых непрочитанных сообщений. Мастер (2010) DVDRip от Youtracker

5 | 2

745.2 МБ

В этой теме нет новых непрочитанных сообщений. Мастер (2010) DVD9 R5 от Youtracker | лицензия

1 | 2

5.33 ГБ

В этой теме нет новых непрочитанных сообщений. Мастер перевоплощения / Мастер маскировки / The Master of Disguise (2002) DVDRip от ParaBOX

10 | 35

1.46 ГБ

В этой теме нет новых непрочитанных сообщений. Мастер Кунг-Фу / Kung-Fu Master (2010) DVDRip

1 | 7

705.65 МБ

В этой теме нет новых непрочитанных сообщений. Мастер Кунг-Фу / Kung-Fu Master (2010) DVDRip

16 | 26

1.36 ГБ

В этой теме нет новых непрочитанных сообщений. Силовая подготовка бойца. Мастер-класс (2010) DVDRip

54 | 11

755.96 МБ

В этой теме нет новых непрочитанных сообщений. Великий мастер / Yi dai zong shi (2013) DVD9 R5 от Youtracker | лицензия

14 | 2

6.63 ГБ




Вы не можете начинать темы
Вы не можете отвечать на сообщения
Вы не можете редактировать свои сообщения
Вы не можете удалять свои сообщения
Вы не можете добавлять вложения

Перейти:  
Для Мосгорсуда, Роскомнадзора и рекламодателей: mosgorsud-torrent[собачка]yandex.ru
 Вход
ppkBB3cker v.2 © 2008-2014 @ PPK
[ Time : 0.031s | 14 Queries | GZIP : Off ]

Торрент трекер RUTOR.IN, Не можете зайти на rutor.org? Какой новый адрес рутор? Какое зеркало рутор? Не работает rutor.org и зеркала? Тогда наш торрент специально для вас. Rutor.in неофициальное зеркало rutor. В случае если у Вас заблокирован rutor или вдруг Вы не можете на него зайти, то Вы без труда сможете скачать бесплатно и без рекламы последние новинки кино, игр, сериалов и прочего у нас, на Rutor.in. Не нужно использовать прокси, чтобы зайти на рутор, достаточно воспользоваться нашим ресурсом. Все новые фильмы, игры, сериалы, книги и музыка за 2013 и 2014 годы через торрент бесплатно. Скачивайте фильмы в хорошем качестве, игры для пк, xbox, playstation без регистрации. У нас вы найдете новые Зарубежные сериалы и Русские сериалы 2013, 2014, 2015 годов. Оставайтесь с нами, качайте любимые фильмы, игры, сериалы, книги и музыку.