img image001 image001 image001 image001 image001 image001 image001 image001 image001 image001 image001 image001 image001 image001 image001

Planets Sun Sun Sun
Статистика раздачи
Автор: Снежана | Размер: 744.78 МБ | Добавлен: 24 июл 2013
Раздают: 1    Качают: 2
Скачать торрент
Скачать торрент
Описание торрента

СообщениеДобавлено: 24 июл 2013 

#77

Страна: Россия
Жанр: драма, приключения
Год выпуска: 2010
Продолжительность: 01:26:23

Перевод: Не требуется
Cубтитры: нет
Оригинальная аудиодорожка: русский

Режиссеры: Владимир Карабанов

В ролях: Евгений Ермаков, Сергей Шнуров, Ирина Шевчук, Анастасия Сметанина, Иван Жидков, Александр Адабашьян, Александр Пятков, Марина Иванова, Павел Дроздов, Анатолий Калмыков...

Описание: На арене цирка идёт представление. А за кулисами волнение: любимец публики cлон Бодхи заболел. Руководство цирка решает слона усыпить. Наутро за Бодхи приезжает трейлер. Но вместо печальной поездки Бодхи, вместе с водителем трейлера Зарезиным и милой цирковой девочкой Бонни, отправляется в чудесное путешествие, полное приключений, погонь, неожиданных поворотов и радостных встреч…





Исходник: DVD5 R5
Качество: DVDRip
Формат: AVI

Видео: 720x304 (2.35:1), 25.0 fps, XviD MPEG-4 ~1067 kbps avg, 0.195 bit/pixel
Аудио: Russian, МР3, 2/0 ch, 128 kbps, Delay 0 mSec
Раздача от:
Общее
Полное имя : Slon.2010.O.DVDRip.745MB_[Youtracker]_by_avproh.avi
Формат : AVI
Формат/Информация : Audio Video Interleave
Размер файла : 745 Мбайт
Продолжительность : 1 ч. 26 м.
Общий поток : 1205 Кбит/сек
Программа кодирования : VirtualDubMod 1.5.10.3 | www.virtualdub-fr.org || (build 2550/release)
Библиотека кодирования : VirtualDubMod build 2550/release

Видео
Идентификатор : 0
Формат : MPEG-4 Visual
Профиль формата : Advanced Simple@L5
Параметр BVOP формата : 1
Параметр QPel формата : Нет
Параметр GMC формата : Без точки перехода
Параметр матрицы формата : Выборочная
Идентификатор кодека : XVID
Идентификатор кодека/Подсказка : XviD
Продолжительность : 1 ч. 26 м.
Битрейт : 1067 Кбит/сек
Ширина : 720 пикселей
Высота : 304 пикселя
Соотношение сторон : 2,35:1
Частота кадров : 25,000 кадров/сек
Цветовое пространство : YUV
Субдискретизация насыщенности : 4:2:0
Битовая глубина : 8 бит
Тип развёртки : Прогрессивная
Метод сжатия : С потерями
Бит/(Пиксели*Кадры) : 0.195
Размер потока : 660 Мбайт (89%)
Библиотека кодирования : XviD 65

Аудио
Идентификатор : 1
Формат : MPEG Audio
Версия формата : Version 1
Профиль формата : Layer 3
Идентификатор кодека : 55
Идентификатор кодека/Подсказка : MP3
Продолжительность : 1 ч. 26 м.
Вид битрейта : Постоянный
Битрейт : 128 Кбит/сек
Каналы : 2 канала
Частота : 48,0 КГц
Метод сжатия : С потерями
Размер потока : 79,1 Мбайт (11%)
Выравнивание : Соединение по промежуткам
Продолжительность промежутка : 40 мс. (1,00 видеокадр)
Время предзагрузки промежутка : 504 мс.





   Похожие торренты   Торрент   Размер 
В этой теме нет новых непрочитанных сообщений. Слон (2010) DVDRip от Youtracker

122 | 2

1.46 ГБ

В этой теме нет новых непрочитанных сообщений. Слон (2010) DVDRip-AVC от Youtracker

5 | 3

1.46 ГБ

В этой теме нет новых непрочитанных сообщений. Слон (2010) DVD5 от Youtracker | лицензия

0 | 16

3.78 ГБ

В этой теме нет новых непрочитанных сообщений. Белый слон / Elephant White (2011) BDRip от Youtracker | P2

17 | 3

1.46 ГБ

В этой теме нет новых непрочитанных сообщений. Белый слон / Elephant White (2011) BDRip от Youtracker | P2

5 | 2

744.77 МБ

В этой теме нет новых непрочитанных сообщений. Белый слон / Elephant White (2011) BDRip от Youtracker | 2xP2, L2

4 | 2

2.2 ГБ

В этой теме нет новых непрочитанных сообщений. Белый слон / Elephant White (2011) BDRip-AVC от Youtracker | 2xP2, L2

6 | 4

2.19 ГБ




Вы не можете начинать темы
Вы не можете отвечать на сообщения
Вы не можете редактировать свои сообщения
Вы не можете удалять свои сообщения
Вы не можете добавлять вложения

Перейти:  
Для Мосгорсуда, Роскомнадзора и рекламодателей: mosgorsud-torrent[собачка]yandex.ru
 Вход
ppkBB3cker v.2 © 2008-2014 @ PPK
[ Time : 0.033s | 14 Queries | GZIP : On ]

Торрент трекер RUTOR.IN, Не можете зайти на rutor.org? Какой новый адрес рутор? Какое зеркало рутор? Не работает rutor.org и зеркала? Тогда наш торрент специально для вас. Rutor.in неофициальное зеркало rutor. В случае если у Вас заблокирован rutor или вдруг Вы не можете на него зайти, то Вы без труда сможете скачать бесплатно и без рекламы последние новинки кино, игр, сериалов и прочего у нас, на Rutor.in. Не нужно использовать прокси, чтобы зайти на рутор, достаточно воспользоваться нашим ресурсом. Все новые фильмы, игры, сериалы, книги и музыка за 2013 и 2014 годы через торрент бесплатно. Скачивайте фильмы в хорошем качестве, игры для пк, xbox, playstation без регистрации. У нас вы найдете новые Зарубежные сериалы и Русские сериалы 2013, 2014, 2015 годов. Оставайтесь с нами, качайте любимые фильмы, игры, сериалы, книги и музыку.