img image001 image001 image001 image001 image001 image001 image001 image001 image001 image001 image001 image001 image001 image001 image001

Planets Sun Sun Sun
Статистика раздачи
Автор: Снежана | Размер: 1.46 ГБ | Добавлен: 24 июл 2013
Раздают: 5    Качают: 3
Скачать торрент
Скачать торрент
Описание торрента

СообщениеДобавлено: 24 июл 2013 

#77

Страна: Россия
Жанр: драма, приключения
Год выпуска: 2010
Продолжительность: 01:26:23

Перевод: Не требуется
Cубтитры: нет
Оригинальная аудиодорожка: русский

Режиссеры: Владимир Карабанов

В ролях: Евгений Ермаков, Сергей Шнуров, Ирина Шевчук, Анастасия Сметанина, Иван Жидков, Александр Адабашьян, Александр Пятков, Марина Иванова, Павел Дроздов, Анатолий Калмыков...

Описание: На арене цирка идёт представление. А за кулисами волнение: любимец публики cлон Бодхи заболел. Руководство цирка решает слона усыпить. Наутро за Бодхи приезжает трейлер. Но вместо печальной поездки Бодхи, вместе с водителем трейлера Зарезиным и милой цирковой девочкой Бонни, отправляется в чудесное путешествие, полное приключений, погонь, неожиданных поворотов и радостных встреч…





Исходник: DVD5 R5
Качество: DVDRip-AVC
Формат: MKV

Видео: 720x432@1024x432 (2.40:1), 25.0 fps, H264 MPEG-4 ~1963 kbps avg, 0.252 bit/pixel
Аудио: Russian, AC3, 5/1 ch, 448 kbps, Delay 0 mSec
Раздача от:
Общее
Полное имя : Slon.2010.O.DVDRip-AVC_[Youtracker]_by_avproh.mkv
Формат : Matroska
Версия формата : Version 2
Размер файла : 1,46 Гбайт
Продолжительность : 1 ч. 26 м.
Общий поток : 2412 Кбит/сек
Дата кодирования : UTC 2012-11-01 22:49:08
Программа кодирования : mkvmerge v5.0.1 ('Es ist Sommer') built on Nov 6 2011 16:23:40
Библиотека кодирования : libebml v1.2.2 + libmatroska v1.3.0

Видео
Идентификатор : 1
Формат : AVC
Формат/Информация : Advanced Video Codec
Профиль формата : High@L4.1
Параметр CABAC формата : Да
Параметр ReFrames формата : 11 кадров
Идентификатор кодека : V_MPEG4/ISO/AVC
Продолжительность : 1 ч. 26 м.
Битрейт : 1963 Кбит/сек
Ширина : 720 пикселей
Высота : 432 пикселя
Соотношение сторон : 2,40:1
Частота кадров : 25,000 кадров/сек
Цветовое пространство : YUV
Субдискретизация насыщенности : 4:2:0
Битовая глубина : 8 бит
Тип развёртки : Прогрессивная
Бит/(Пиксели*Кадры) : 0.252
Размер потока : 1,16 Гбайт (79%)
Библиотека кодирования : x264 core 119 r2106 07efeb4
Настройки программы : cabac=1 / ref=11 / deblock=1:-2:-1 / analyse=0x3:0x113 / me=umh / subme=9 / psy=1 / psy_rd=1.00:0.20 / mixed_ref=1 / me_range=32 / chroma_me=1 / trellis=1 / 8x8dct=1 / cqm=0 / deadzone=21,11 / fast_pskip=0 / chroma_qp_offset=-3 / threads=9 / sliced_threads=0 / nr=0 / decimate=0 / interlaced=0 / bluray_compat=0 / constrained_intra=0 / bframes=8 / b_pyramid=2 / b_adapt=2 / b_bias=0 / direct=3 / weightb=1 / open_gop=0 / weightp=2 / keyint=250 / keyint_min=25 / scenecut=40 / intra_refresh=0 / rc_lookahead=60 / rc=2pass / mbtree=1 / bitrate=1963 / ratetol=1.0 / qcomp=0.60 / qpmin=0 / qpmax=69 / qpstep=4 / cplxblur=20.0 / qblur=0.5 / ip_ratio=1.40 / aq=1:1.00
Default : Да
Forced : Нет

Аудио
Идентификатор : 2
Формат : AC-3
Формат/Информация : Audio Coding 3
Расширение режима : CM (complete main)
Параметр Endianness формата : Big
Идентификатор кодека : A_AC3
Продолжительность : 1 ч. 26 м.
Вид битрейта : Постоянный
Битрейт : 448 Кбит/сек
Каналы : 6 каналов
Расположение каналов : Front: L C R, Side: L R, LFE
Частота : 48,0 КГц
Битовая глубина : 16 бит
Метод сжатия : С потерями
Размер потока : 277 Мбайт (19%)
Default : Да
Forced : Нет





   Похожие торренты   Торрент   Размер 
В этой теме нет новых непрочитанных сообщений. Слон (2010) DVDRip от Youtracker

122 | 2

1.46 ГБ

В этой теме нет новых непрочитанных сообщений. Слон (2010) DVDRip от Youtracker

1 | 2

744.78 МБ

В этой теме нет новых непрочитанных сообщений. Слон (2010) DVD5 от Youtracker | лицензия

0 | 16

3.78 ГБ

В этой теме нет новых непрочитанных сообщений. Белый слон / Elephant White (2011) BDRip от Youtracker | P2

5 | 2

744.77 МБ

В этой теме нет новых непрочитанных сообщений. Белый слон / Elephant White (2011) BDRip от Youtracker | P2

17 | 3

1.46 ГБ

В этой теме нет новых непрочитанных сообщений. Белый слон / Elephant White (2011) BDRip-AVC от Youtracker | 2xP2, L2

6 | 4

2.19 ГБ

В этой теме нет новых непрочитанных сообщений. Белый слон / Elephant White (2011) BDRip от Youtracker | 2xP2, L2

4 | 2

2.2 ГБ




Вы не можете начинать темы
Вы не можете отвечать на сообщения
Вы не можете редактировать свои сообщения
Вы не можете удалять свои сообщения
Вы не можете добавлять вложения

Перейти:  
Для Мосгорсуда, Роскомнадзора и рекламодателей: mosgorsud-torrent[собачка]yandex.ru
 Вход
ppkBB3cker v.2 © 2008-2014 @ PPK
[ Time : 0.046s | 15 Queries | GZIP : Off ]

cron