img image001 image001 image001 image001 image001 image001 image001 image001 image001 image001 image001 image001 image001 image001 image001

Planets Sun Sun Sun
Статистика раздачи
Автор: Снежана | Размер: 2.19 ГБ | Добавлен: 24 июл 2013
Раздают: 9    Качают: 4
Скачать торрент
Скачать торрент
Описание торрента

СообщениеДобавлено: 24 июл 2013 

#77
БЛИЗКИЕ ЛЮДИ
По одноименному роману Татьяны Устиновой

Год выпуска: 2005
Жанр: Мелодрама, криминал, детектив
Продолжительность: 3:18:36

Режиссер: Андрей Праченко
В ролях: Сергей Горобченко, Наталья Лесниковская, Анастасия Бусыгина, Андрей Егоров, Олег Макаров, Михаил Кукуюк, Наталья Мавроди, Регина Мянник, Виктор Сарайкин, Сергей Степин

Описание: Главные герои фильма — трое друзей, работающих вместе — Степанов, Чернов и Белов. Их строительная фирма процветает, получая новый заказ, но вокруг стройки начинают происходить постоянные ЧП — сначала забастовки, потом несчастный случай с рабочим, смерть прораба… Вдобавок каждый из друзей что-то скрывает друг от друга, недомолвки плодят подозрения и недоверие… Выдержит ли их дружба проверку трудностями? И будут ли найдены виновные в убийствах?




Качество видео: DVDRip
Формат видео: AVI
Видео: 688x384 (1.79:1), 25 fps, XviD build 65 ~1444 kbps, 0.22 bit/pixel
Аудио: 48 kHz, MPEG Layer 3, 2 ch, ~128.00 kbps





Код:
General
Complete name                    : Blizkie.Ludi.DVDRip.XviD_Olu6ka.avi
Format                           : AVI
Format/Info                      : Audio Video Interleave
Format profile                   : OpenDML
File size                        : 2.19 GiB
Duration                         : 3h 18mn
Overall bit rate                 : 1 579 Kbps
Movie name                       : Blizkie Ludi_full
Writing application              : FairUse Wizard

Video
ID                               : 0
Format                           : MPEG-4 Visual
Format profile                   : Advanced Simple@L5
Format settings, BVOP            : Yes
Format settings, QPel            : No
Format settings, GMC             : No warppoints
Format settings, Matrix          : Custom
Codec ID                         : XVID
Codec ID/Hint                    : XviD
Duration                         : 3h 18mn
Bit rate                         : 1 439 Kbps
Width                            : 688 pixels
Height                           : 384 pixels
Display aspect ratio             : 16:9
Frame rate                       : 25.000 fps
Color space                      : YUV
Chroma subsampling               : 4:2:0
Bit depth                        : 8 bits
Scan type                        : Progressive
Bits/(Pixel*Frame)               : 0.218
Stream size                      : 2.00 GiB (91%)
Writing library                  : XviD 65

Audio
ID                               : 1
Format                           : MPEG Audio
Format version                   : Version 1
Format profile                   : Layer 3
Mode                             : Joint stereo
Mode extension                   : MS Stereo
Codec ID                         : 55
Codec ID/Hint                    : MP3
Duration                         : 3h 18mn
Bit rate mode                    : Constant
Bit rate                         : 128 Kbps
Channel(s)                       : 2 channels
Sampling rate                    : 48.0 KHz
Stream size                      : 182 MiB (8%)
Alignment                        : Split accross interleaves
Interleave, duration             : 40 ms (1.00 video frame)
Interleave, preload duration     : 500 ms


http://rutor.org/torrent/121265/blizkie-ljudi-4-serii-iz-4-2005-dvdrip
http://screenshotcomparison.com/compari ... /picture:0
В данном релизе выполнено произвольное условное разделение на серии - DVD9 не имеет такого разделения


Релиз от:



   Похожие торренты   Торрент   Размер 
В этой теме нет новых непрочитанных сообщений. Близкие люди [01-04 из 04] (2005) DVDRip от MediaClub | КПК

22 | 6

901.17 МБ

В этой теме нет новых непрочитанных сообщений. Близкие люди [01-04 серии из 04] (2005) DVD9

5 | 4

7.34 ГБ

В этой теме нет новых непрочитанных сообщений. Близкие люди / Being Us (2013) WEBRip | P

171 | 41

1.46 ГБ

В этой теме нет новых непрочитанных сообщений. Близкие люди [01-07 из 12] (2014) WEB-DLRip от Files-х

26 | 0

4.17 ГБ

В этой теме нет новых непрочитанных сообщений. Близкие люди [01-07 из 12] (2014) WEB-DLRip от Files-х

2 | 0

4.77 ГБ

В этой теме нет новых непрочитанных сообщений. Близкие люди [01-07 из 12] (2014) WEB-DLRip от Files-х

4 | 2

5.97 ГБ

В этой теме нет новых непрочитанных сообщений. Близкие друзья / Queer as Folk [01-05] (2001-2005) DVDRip

42 | 49

28.16 ГБ




Вы не можете начинать темы
Вы не можете отвечать на сообщения
Вы не можете редактировать свои сообщения
Вы не можете удалять свои сообщения
Вы не можете добавлять вложения

Перейти:  
Для Мосгорсуда, Роскомнадзора и рекламодателей: mosgorsud-torrent[собачка]yandex.ru
 Вход
ppkBB3cker v.2 © 2008-2014 @ PPK
[ Time : 0.039s | 15 Queries | GZIP : Off ]

cron