img image001 image001 image001 image001 image001 image001 image001 image001 image001 image001 image001 image001 image001 image001 image001

Planets Sun Sun Sun
Статистика раздачи
Автор: Снежана | Размер: 1 ГБ | Добавлен: 24 июл 2013
Раздают: 18    Качают: 8
Скачать торрент
Скачать торрент
Описание торрента

СообщениеДобавлено: 24 июл 2013 

#77

Год выпуска: 1984
Страна: CCCР
Студия: Одесская киностудия

Перевод: Не требуется
Жанр: боевик, военный
Продолжительность: 01:05:10

Режиссер: Иван Горобец

В ролях: Валерий Юрченко, Ирина Резникова, Александр Панкратов-Черный, Сейдулла Молдаханов, Игорь Черницкий, Станислав Рий, Иван Бортник, Арунас Сторпирстис, Нийоле Ожелите, Анатолий Белый...

Описание: последние дни войны после выполнения специального задания группа майора Горелова возвращается к своим. Вскоре танкисты узнают, что фашисты собираются взорвать секретный завод, где работают около двух тысяч военнопленных: французов, англичан и американцев.
Несмотря на малые силы (25 бойцов, 2 танка, пушка и 2 грузовика), майор принимает решение во что бы то ни стало спасти от гибели безоружных людей. Группа Горелова решает идти на выручку союзникам…





Исходник: DVD5 R5
Качество: DVDRip
Формат: AVI

Видео: 688x384 (16:9), 25.000 fps, XviD MPEG-4 ~1998 kbps avg, 0.302 bit/pixel
Аудио: 48 kHz, Dolby AC3, 2 ch, 192.00 kbps Constant
Раздача от:
Общее
Полное имя : Deystvuy.po.obstanovke.1984.O.DVDRip_[Youtracker]_by_avproh.avi
Формат : AVI
Формат/Информация : Audio Video Interleave
Размер файла : 1,00 Гбайт
Продолжительность : 1 ч. 5 м.
Общий поток : 2199 Кбит/сек
Программа кодирования : VirtualDubMod 1.5.10.3 | www.virtualdub-fr.org || (build 2550/release)
Библиотека кодирования : VirtualDubMod build 2550/release

Видео
Идентификатор : 0
Формат : MPEG-4 Visual
Профиль формата : Advanced Simple@L5
Параметр BVOP формата : 1
Параметр QPel формата : Нет
Параметр GMC формата : Без точки перехода
Параметр матрицы формата : Выборочная
Идентификатор кодека : XVID
Идентификатор кодека/Подсказка : XviD
Продолжительность : 1 ч. 5 м.
Битрейт : 1998 Кбит/сек
Ширина : 688 пикселей
Высота : 384 пикселя
Соотношение сторон : 16:9
Частота кадров : 25,000 кадров/сек
Цветовое пространство : YUV
Субдискретизация насыщенности : 4:2:0
Битовая глубина : 8 бит
Тип развёртки : Прогрессивная
Метод сжатия : С потерями
Бит/(Пиксели*Кадры) : 0.302
Размер потока : 931 Мбайт (91%)
Библиотека кодирования : XviD 65

Аудио
Идентификатор : 1
Формат : AC-3
Формат/Информация : Audio Coding 3
Расширение режима : CM (complete main)
Параметр Endianness формата : Big
Идентификатор кодека : 2000
Продолжительность : 1 ч. 5 м.
Вид битрейта : Постоянный
Битрейт : 192 Кбит/сек
Каналы : 2 канала
Расположение каналов : Front: L R
Частота : 48,0 КГц
Битовая глубина : 16 бит
Метод сжатия : С потерями
Размер потока : 89,5 Мбайт (9%)
Выравнивание : Разделение по промежуткам
Продолжительность промежутка : 40 мс. (1,00 видеокадр)
Время предзагрузки промежутка : 500 мс.






   Похожие торренты   Торрент   Размер 
В этой теме нет новых непрочитанных сообщений. Действуй по обстановке (1984) DVD5 R5 от Youtracker | лицензия

23 | 7

2.79 ГБ

В этой теме нет новых непрочитанных сообщений. Действуй по обстановке (1984) DVDRip

0 | 2

700.08 МБ

В этой теме нет новых непрочитанных сообщений. В двух шагах от «Рая» (1984) DVDRip от Youtracker

100 | 4

742.98 МБ

В этой теме нет новых непрочитанных сообщений. Близнец / Le Jumeau (1984) DVDRip от Youtracker | P

10 | 4

744.95 МБ

В этой теме нет новых непрочитанных сообщений. Следую своим курсом (1984) DVDRip от Youtracker

465 | 16

745.17 МБ

В этой теме нет новых непрочитанных сообщений. Действуй, Маня! (1991) DVDRip

330 | 18

976.07 МБ

В этой теме нет новых непрочитанных сообщений. Кто этот человек? / Kim jest ten czlowiek? (1984) DVDRip от Youtracker | D

3 | 3

1.45 ГБ




Вы не можете начинать темы
Вы не можете отвечать на сообщения
Вы не можете редактировать свои сообщения
Вы не можете удалять свои сообщения
Вы не можете добавлять вложения

Перейти:  
Для Мосгорсуда, Роскомнадзора и рекламодателей: mosgorsud-torrent[собачка]yandex.ru
 Вход
ppkBB3cker v.2 © 2008-2014 @ PPK
[ Time : 0.023s | 14 Queries | GZIP : On ]

Торрент трекер RUTOR.IN, Не можете зайти на rutor.org? Какой новый адрес рутор? Какое зеркало рутор? Не работает rutor.org и зеркала? Тогда наш торрент специально для вас. Rutor.in неофициальное зеркало rutor. В случае если у Вас заблокирован rutor или вдруг Вы не можете на него зайти, то Вы без труда сможете скачать бесплатно и без рекламы последние новинки кино, игр, сериалов и прочего у нас, на Rutor.in. Не нужно использовать прокси, чтобы зайти на рутор, достаточно воспользоваться нашим ресурсом. Все новые фильмы, игры, сериалы, книги и музыка за 2013 и 2014 годы через торрент бесплатно. Скачивайте фильмы в хорошем качестве, игры для пк, xbox, playstation без регистрации. У нас вы найдете новые Зарубежные сериалы и Русские сериалы 2013, 2014, 2015 годов. Оставайтесь с нами, качайте любимые фильмы, игры, сериалы, книги и музыку.