img image001 image001 image001 image001 image001 image001 image001 image001 image001 image001 image001 image001 image001 image001 image001

Planets Sun Sun Sun
Статистика раздачи
Автор: Снежана | Размер: 4.37 ГБ | Добавлен: 24 июл 2013
Раздают: 23    Качают: 5
Скачать торрент
Скачать торрент
Описание торрента

СообщениеДобавлено: 24 июл 2013 

#77

Информация о фильме
Название: 72 метра
Год выхода: 2004
Режиссер: Владимир Хотиненко
В ролях: Сергей Маковецкий, Марат Башаров, Андрей Краско, Дмитрий Ульянов, Чулпан Хаматова, Станислав Никольский, Сергей Гармаш, Владислав Галкин, Игорь Ливанов, Артем Михалков ...

О фильме:
В начале девяностых, после раздела советского флота, экипаж "Славянки", отказавшись принять украинскую присягу, был переведен в Северогорск. С тех пор и жизнь, и служба идут своим чередом. И очередной выход в море – боевые плановые учения. Командир корабля оглашает поставленную задачу. Уничтожив торпедной атакой условного противника и уйдя от преследования, "Славянка" затем должна на время исчезнуть из поля зрения. Никто в Учебном центре не знает, в какую сторону будет двигаться подлодка. И никто не предполагает, что случится беда: волны от взрывов растревожат спящую со времен войны мину, которая, вынырнув из-под толстого слоя ила, медленно тронется навстречу субмарине...



Страна: Россия
Продолжительность: 01:56:11
Перевод: Не требуется

Файл
Кодек: MPEG2
Качество: DVD-5
Видео: 720x576 (4:3), 25.00fps, 4 351 Kbps
Звук: Dolby AC3, 48000Hz, 6ch, 448kbps
Субтитры: Русские
File size : 4 470 MiB
Duration : 01:56:11
Overall bit rate mode : Variable
Overall bit rate : 4 896 Kbps

Video
ID : 224 (0xE0)
Format : MPEG Video
Format version : Version 2
Format profile : Main@Main
Format settings, BVOP : Yes
Format settings, Matrix : Custom
Format settings, GOP : M=3, N=12
Duration : 01:56:11
Bit rate mode : Variable
Bit rate : 4 351 Kbps
Maximum bit rate : 8 500 Kbps
Width : 720 pixels
Height : 576 pixels
Display aspect ratio : 4:3
Frame rate : 25.000 fps
Standard : PAL
Color space : YUV
Chroma subsampling : 4:2:0
Bit depth : 8 bits
Scan type : Interlaced
Scan order : Top Field First
Compression mode : Lossy
Bits/(Pixel*Frame) : 0.420
Stream size : 910 MiB (89%)

Audio
ID : 189 (0xBD)-128 (0x80)
Format : AC-3
Format/Info : Audio Coding 3
Mode extension : CM (complete main)
Muxing mode : DVD-Video
Duration : 01:56:11
Bit rate mode : Constant
Bit rate : 448 Kbps
Channel(s) : 6 channels
Channel positions : Front: L C R, Side: L R, LFE
Sampling rate : 48.0 KHz
Bit depth : 16 bits
Compression mode : Lossy
Delay relative to video : -80ms
Stream size : 93.7 MiB (9%)

Text
ID : 189 (0xBD)-32 (0x20)
Format : RLE
Format/Info : Run-length encoding
Muxing mode : DVD-Video
Duration : 01:56:11
Delay relative to video : 4s 0ms

Menu




   Похожие торренты   Торрент   Размер 
В этой теме нет новых непрочитанных сообщений. Три метра над небом / Три метра над уровнем неба / Tres metros sobre el cielo (2010) HDRip от Scarabey | D

303 | 5

1.46 ГБ

В этой теме нет новых непрочитанных сообщений. Три метра над небом / Три метра над уровнем неба / Tres metros sobre el cielo (2010) HDRip от Scarabey | P

209 | 27

1.45 ГБ

В этой теме нет новых непрочитанных сообщений. Три метра над небом / Три метра над уровнем неба / Tres metros sobre el cielo (2010) HDRip от Scarabey | P

53 | 10

744.41 МБ

В этой теме нет новых непрочитанных сообщений. Три метра над небом / Три метра над уровнем неба / Tres metros sobre el cielo (2010) HDRip от Scarabey | D, P

178 | 9

2.17 ГБ

В этой теме нет новых непрочитанных сообщений. 72 метра (2004) DVDRip

324 | 12

1.37 ГБ

В этой теме нет новых непрочитанных сообщений. 72 метра (2004) DVDRip

469 | 16

744.2 МБ

В этой теме нет новых непрочитанных сообщений. 72 метра (2004) DVDRip от KINOREAKTOR

198 | 9

2.05 ГБ




Вы не можете начинать темы
Вы не можете отвечать на сообщения
Вы не можете редактировать свои сообщения
Вы не можете удалять свои сообщения
Вы не можете добавлять вложения

Перейти:  
Для Мосгорсуда, Роскомнадзора и рекламодателей: mosgorsud-torrent[собачка]yandex.ru
 Вход
ppkBB3cker v.2 © 2008-2014 @ PPK
[ Time : 0.113s | 13 Queries | GZIP : Off ]
CGP output time : 0.011s | 5 Queries | GZIP : Off

Торрент трекер RUTOR.IN, Не можете зайти на rutor.org? Какой новый адрес рутор? Какое зеркало рутор? Не работает rutor.org и зеркала? Тогда наш торрент специально для вас. Rutor.in неофициальное зеркало rutor. В случае если у Вас заблокирован rutor или вдруг Вы не можете на него зайти, то Вы без труда сможете скачать бесплатно и без рекламы последние новинки кино, игр, сериалов и прочего у нас, на Rutor.in. Не нужно использовать прокси, чтобы зайти на рутор, достаточно воспользоваться нашим ресурсом. Все новые фильмы, игры, сериалы, книги и музыка за 2013 и 2014 годы через торрент бесплатно. Скачивайте фильмы в хорошем качестве, игры для пк, xbox, playstation без регистрации. У нас вы найдете новые Зарубежные сериалы и Русские сериалы 2013, 2014, 2015 годов. Оставайтесь с нами, качайте любимые фильмы, игры, сериалы, книги и музыку.