img image001 image001 image001 image001 image001 image001 image001 image001 image001 image001 image001 image001 image001 image001 image001

Planets Sun Sun Sun
Статистика раздачи
Автор: Снежана | Размер: 746.17 МБ | Добавлен: 24 июл 2013
Раздают: 2    Качают: 3
Скачать торрент
Скачать торрент
Описание торрента

СообщениеДобавлено: 24 июл 2013 

#77
Год выпуска: 2008
Страна: Россия
Жанр: драма, криминал
Продолжительность: 01:38:10 (00:45:20 + 00:52:50)

Перевод: не требуется
Субтитры: нет
Оригинальная аудиодорожка: русский

Режиссер: Алексей Гусев

В ролях: Сергей Селин, Жанна Эппле, Алексей Нилов, Михаил Евланов, Евгений Леонов-Гладышев ,Евгений Филатов...

Описание: Полковник — спецназовец должен доставить из колонии свидетельницу Васильеву для дачи показаний против крупного бизнесмена Зорина. Васильева работала в его корпорации финансовым директором. Факт её возвращения для Зорина чрезвычайно нежелателен, и он отдаёт приказ ликвидировать Васильеву. А полковник получил приказ доставить её в Петербург живой и невредимой…





Исходник: DVD9 R5
Тип релиза: DVDRip
Контейнер: AVI

Видео: 672x368 (16:9), 25 fps, XviD ~ 925 kbps avg, 0.150 bit/pixel
Аудио: 48 kHz, MP3, 2 ch, 128.00 kbps

Раздача от:
Общее
Полное имя : Любовь под грифом «Совершенно секретно»Ljubov'.pod.grifom.«Sovershenno sekretno».2008.DVDRip\01.avi
Формат : AVI
Формат/Информация : Audio Video Interleave
Размер файла : 345 Мбайт
Продолжительность : 45 м.
Общий поток : 1063 Кбит/сек
Программа кодирования : VirtualDubMod 1.5.10.3 | www.virtualdub-fr.org || (build 2550/release)
Библиотека кодирования : VirtualDubMod build 2550/release

Видео
Идентификатор : 0
Формат : MPEG-4 Visual
Профиль формата : Advanced Simple@L5
Параметр BVOP формата : 1
Параметр QPel формата : Нет
Параметр GMC формата : Без точки перехода
Параметр матрицы формата : Выборочная
Идентификатор кодека : XVID
Идентификатор кодека/Подсказка : XviD
Продолжительность : 45 м.
Битрейт : 925 Кбит/сек
Ширина : 672 пикселя
Высота : 368 пикселей
Соотношение сторон : 16:9
Частота кадров : 25,000 кадров/сек
Цветовое пространство : YUV
Субдискретизация насыщенности : 4:2:0
Битовая глубина : 8 бит
Тип развёртки : Прогрессивная
Метод сжатия : С потерями
Бит/(Пиксели*Кадры) : 0.150
Размер потока : 300 Мбайт (87%)
Библиотека кодирования : XviD 65

Аудио
Идентификатор : 1
Формат : MPEG Audio
Версия формата : Version 1
Профиль формата : Layer 3
Идентификатор кодека : 55
Идентификатор кодека/Подсказка : MP3
Продолжительность : 45 м.
Вид битрейта : Постоянный
Битрейт : 128 Кбит/сек
Каналы : 2 канала
Частота : 48,0 КГц
Метод сжатия : С потерями
Размер потока : 41,5 Мбайт (12%)
Выравнивание : Соединение по промежуткам
Продолжительность промежутка : 40 мс. (1,00 видеокадр)
Время предзагрузки промежутка : 504 мс.
Библиотека кодирования : L3.99r
Настройки программы : -m s -V 4 -q 2 -lowpass 17 -b 128





   Похожие торренты   Торрент   Размер 
В этой теме нет новых непрочитанных сообщений. Любовь под грифом «Совершенно секретно» (2008) DVDRip-AVC от Youtracker

5 | 2

1.46 ГБ

В этой теме нет новых непрочитанных сообщений. Любовь под грифом «Совершенно секретно» (2008) DVD9 от Youtracker

0 | 4

7.21 ГБ

В этой теме нет новых непрочитанных сообщений. Любовь под грифом «Совершенно секретно» (2008) DVDRip от Киномагия

4 | 2

1.37 ГБ

В этой теме нет новых непрочитанных сообщений. Любовь под грифом «Совершенно секретно» 2 (2009) SATRip

5 | 3

1.37 ГБ

В этой теме нет новых непрочитанных сообщений. Любовь под грифом «Совершенно секретно» 3 (2009) SATRip

5 | 3

1.37 ГБ

В этой теме нет новых непрочитанных сообщений. Совершенно секретно / Streng geheim / For eyes only (1963) DVDRip от Hi-Films

30 | 3

934.66 МБ

В этой теме нет новых непрочитанных сообщений. Фантастика под грифом Секретно. НЛО (2010) SatRip

0 | 22

500.02 МБ




Вы не можете начинать темы
Вы не можете отвечать на сообщения
Вы не можете редактировать свои сообщения
Вы не можете удалять свои сообщения
Вы не можете добавлять вложения

Перейти:  
Для Мосгорсуда, Роскомнадзора и рекламодателей: mosgorsud-torrent[собачка]yandex.ru
 Вход
ppkBB3cker v.2 © 2008-2014 @ PPK
[ Time : 0.151s | 14 Queries | GZIP : Off ]

Торрент трекер RUTOR.IN, Не можете зайти на rutor.org? Какой новый адрес рутор? Какое зеркало рутор? Не работает rutor.org и зеркала? Тогда наш торрент специально для вас. Rutor.in неофициальное зеркало rutor. В случае если у Вас заблокирован rutor или вдруг Вы не можете на него зайти, то Вы без труда сможете скачать бесплатно и без рекламы последние новинки кино, игр, сериалов и прочего у нас, на Rutor.in. Не нужно использовать прокси, чтобы зайти на рутор, достаточно воспользоваться нашим ресурсом. Все новые фильмы, игры, сериалы, книги и музыка за 2013 и 2014 годы через торрент бесплатно. Скачивайте фильмы в хорошем качестве, игры для пк, xbox, playstation без регистрации. У нас вы найдете новые Зарубежные сериалы и Русские сериалы 2013, 2014, 2015 годов. Оставайтесь с нами, качайте любимые фильмы, игры, сериалы, книги и музыку.