img image001 image001 image001 image001 image001 image001 image001 image001 image001 image001 image001 image001 image001 image001 image001

Planets Sun Sun Sun
Статистика раздачи
Автор: Снежана | Размер: 746.97 МБ | Добавлен: 24 июл 2013
Раздают: 8    Качают: 7
Скачать торрент
Скачать торрент
Описание торрента

СообщениеДобавлено: 24 июл 2013 

#77
Год выпуска: 2008
Страна: Россия
Продолжительность: 01:35:56

Перевод: не требуется
Субтитры: нет
Жанр: драма, криминал
Оригинальная аудиодорожка: русский

Режиссер: Армен Назикян

В ролях: Андрей Смоляков, Татьяна Казючиц, Руслан Курик, Александр Саюталин, Виктор Васильев, Николай Рябычин, Денис Тарасенко, Андрей Шилько, Анна Кисель, Алёна Козырева...

Описание: Константин Воронцов, по прозвищу «Папа Карло», владелец крупной транспортной компании, не в силах смириться с тем, что единственная любимая дочь Катя выходит замуж наперекор его воле. Желая все вернуть назад, возмущенный своенравием дочери, Константин решает подставить новоиспеченного зятя Максима с целью упрятать его за решетку. Ослепленный ревностью «Папа Карло» забывает об одном: дочь сама имеет право решать свою судьбу…





Исходник: DVD9 R5
Тип релиза: DVDRip
Контейнер: AVI

Видео: 688x384 (16:9), 25 fps, XviD ~ 951 kbps avg, 0.144 bit/pixel
Аудио: 48 kHz, MP3, 2 ch, 128.00 kbps

Раздача от:
Общее
Полное имя : Lubimaya.doch.papy.Karlo.2008.DVDRip_[Youtracker]_by_AVP Studio.avi
Формат : AVI
Формат/Информация : Audio Video Interleave
Размер файла : 747 Мбайт
Продолжительность : 1 ч. 35 м.
Общий поток : 1089 Кбит/сек
Программа кодирования : VirtualDubMod 1.5.10.3 | www.virtualdub-fr.org || (build 2550/release)
Библиотека кодирования : VirtualDubMod build 2550/release

Видео
Идентификатор : 0
Формат : MPEG-4 Visual
Профиль формата : Advanced Simple@L5
Параметр BVOP формата : 1
Параметр QPel формата : Нет
Параметр GMC формата : Без точки перехода
Параметр матрицы формата : Выборочная
Идентификатор кодека : XVID
Идентификатор кодека/Подсказка : XviD
Продолжительность : 1 ч. 35 м.
Битрейт : 951 Кбит/сек
Ширина : 688 пикселей
Высота : 384 пикселя
Соотношение сторон : 16:9
Частота кадров : 25,000 кадров/сек
Цветовое пространство : YUV
Субдискретизация насыщенности : 4:2:0
Битовая глубина : 8 бит
Тип развёртки : Прогрессивная
Метод сжатия : С потерями
Бит/(Пиксели*Кадры) : 0.144
Размер потока : 652 Мбайт (87%)
Библиотека кодирования : XviD 65

Аудио
Идентификатор : 1
Формат : MPEG Audio
Версия формата : Version 1
Профиль формата : Layer 3
Идентификатор кодека : 55
Идентификатор кодека/Подсказка : MP3
Продолжительность : 1 ч. 35 м.
Вид битрейта : Постоянный
Битрейт : 128 Кбит/сек
Каналы : 2 канала
Частота : 48,0 КГц
Метод сжатия : С потерями
Размер потока : 87,8 Мбайт (12%)
Выравнивание : Соединение по промежуткам
Продолжительность промежутка : 40 мс. (1,00 видеокадр)
Время предзагрузки промежутка : 504 мс.
Библиотека кодирования : L3.99r
Настройки программы : -m s -V 4 -q 2 -lowpass 17 -b 128





   Похожие торренты   Торрент   Размер 
В этой теме нет новых непрочитанных сообщений. Любимая дочь папы Карло (2008) DVDRip-AVC от Youtracker

24 | 5

1.46 ГБ

В этой теме нет новых непрочитанных сообщений. Любимая дочь папы Карло (2008) DVD5 от Youtracker

1 | 3

2.2 ГБ

В этой теме нет новых непрочитанных сообщений. Любимая / Mehbooba (2008) DVDRip от Pasha74

5 | 9

2.06 ГБ

В этой теме нет новых непрочитанных сообщений. Моя дочь, мой ангел / Моя дочь - заложница / Ma fille, mon ange (2007) DVDRip | Лицензия

9 | 5

1.46 ГБ

В этой теме нет новых непрочитанных сообщений. Моя дочь, мой ангел / Моя дочь - заложница / Ma fille, mon ange / My Daughter, My Angel (2007) DVDRip-AVC от olegek70

10 | 3

1.45 ГБ

В этой теме нет новых непрочитанных сообщений. Дочь генерала - Татьяна [01-04 из 4] (2008) DVDRip - КинозалSAT

32 | 4

2.34 ГБ

В этой теме нет новых непрочитанных сообщений. Моя любимая ведьма [50 серий: из 50] (2008) SATRip

86 | 2

10.04 ГБ




Вы не можете начинать темы
Вы не можете отвечать на сообщения
Вы не можете редактировать свои сообщения
Вы не можете удалять свои сообщения
Вы не можете добавлять вложения

Перейти:  
Для Мосгорсуда, Роскомнадзора и рекламодателей: mosgorsud-torrent[собачка]yandex.ru
 Вход
ppkBB3cker v.2 © 2008-2014 @ PPK
[ Time : 0.065s | 14 Queries | GZIP : Off ]

Торрент трекер RUTOR.IN, Не можете зайти на rutor.org? Какой новый адрес рутор? Какое зеркало рутор? Не работает rutor.org и зеркала? Тогда наш торрент специально для вас. Rutor.in неофициальное зеркало rutor. В случае если у Вас заблокирован rutor или вдруг Вы не можете на него зайти, то Вы без труда сможете скачать бесплатно и без рекламы последние новинки кино, игр, сериалов и прочего у нас, на Rutor.in. Не нужно использовать прокси, чтобы зайти на рутор, достаточно воспользоваться нашим ресурсом. Все новые фильмы, игры, сериалы, книги и музыка за 2013 и 2014 годы через торрент бесплатно. Скачивайте фильмы в хорошем качестве, игры для пк, xbox, playstation без регистрации. У нас вы найдете новые Зарубежные сериалы и Русские сериалы 2013, 2014, 2015 годов. Оставайтесь с нами, качайте любимые фильмы, игры, сериалы, книги и музыку.