img image001 image001 image001 image001 image001 image001 image001 image001 image001 image001 image001 image001 image001 image001 image001 image001

Planets Sun Sun Sun
Статистика раздачи
Автор: Снежана | Размер: 1.45 ГБ | Добавлен: 24 июл 2013
Раздают: 94    Качают: 5
Скачать торрент
Скачать торрент
Описание торрента

СообщениеДобавлено: 24 июл 2013 

#77

Жанр: криминал
Год выпуска: 2010
Продолжительность: 01:32:07

Режиссер: Виктор Татарский

В ролях: Дмитрий Марьянов, Александр Барановский, Екатерина Новикова, Алексей Федькин, Константин Дунаевский, Сергей Гамов, Лариса Луста, Марианна Коробейникова, Александр Стёпин, Денис Синявский...

Кинокомпания: НТВ, Триикс Медиагруп

Описание: В жизни 40-летнего следователя городской прокуратуры Олега Борина наступила черная полоса. Все началось с дела, возбужденного против студента, изнасиловавшего девушку. Подозреваемый оказался сыном влиятельного чиновника. Тот воспользовался своими связями, и Борина сначала просто отстранили, а после и вовсе выгнали со службы. Жена ушла, забрав ребенка. Вскоре раздался звонок, и старый приятель Гена предложил работу охранника. Борин согласился, собрал сумку и уехал. Только на месте большого оптового рынка его ждала полная разруха и запустение. Друга он так и не нашел, а местные алкаши рассказали, что рынок давно закрыт.
Той же ночью Олег тайно проник на территорию и… оказался в настоящем подземном городе, где протекала бурная жизнь: разгружались и загружались фуры, в цехах фасовали наркотики, работали подпольные казино и сомнительные кафе, там же ютились гастарбайтеры и в камерах содержали несовершеннолетних девочек. Увидев все ужасы, бесстрашный Олег Борин объявил этому миру войну! Удастся ли опальному следователю спасти своего друга, выйти на след хозяев порочного «Черного города» и восстановить справедливость?..



Тип релиза: DVDRip, источник DVD9 R5
Контейнер: AVI

Видео: 688x400 (1.72:1), 25.000 fps, XVID ~1802 kbps avg, 0.262 bit/pixel
Аудио: 48 kHz, AC3, 6 ch, 448.00 kbps Constant
Раздача от:
Общее
Полное имя : Chenyi.gorod.2010.O.DVDRip_[Youtracker]_by_avproh.avi
Формат : AVI
Формат/Информация : Audio Video Interleave
Размер файла : 1,45 Гбайт
Продолжительность : 1 ч. 32 м.
Общий поток : 2260 Кбит/сек
Программа кодирования : VirtualDubMod 1.5.10.3 | www.virtualdub-fr.org || (build 2550/release)
Библиотека кодирования : VirtualDubMod build 2550/release

Видео
Идентификатор : 0
Формат : MPEG-4 Visual
Профиль формата : Advanced Simple@L5
Параметр BVOP формата : 1
Параметр QPel формата : Нет
Параметр GMC формата : Без точки перехода
Параметр матрицы формата : Выборочная
Идентификатор кодека : XVID
Идентификатор кодека/Подсказка : XviD
Продолжительность : 1 ч. 32 м.
Битрейт : 1802 Кбит/сек
Ширина : 688 пикселей
Высота : 400 пикселей
Соотношение сторон : 1,720
Частота кадров : 25,000 кадров/сек
Цветовое пространство : YUV
Субдискретизация насыщенности : 4:2:0
Битовая глубина : 8 бит
Тип развёртки : Прогрессивная
Метод сжатия : С потерями
Бит/(Пиксели*Кадры) : 0.262
Размер потока : 1,16 Гбайт (80%)
Библиотека кодирования : XviD 65

Аудио
Идентификатор : 1
Формат : AC-3
Формат/Информация : Audio Coding 3
Расширение режима : CM (complete main)
Параметр Endianness формата : Big
Идентификатор кодека : 2000
Продолжительность : 1 ч. 32 м.
Вид битрейта : Постоянный
Битрейт : 448 Кбит/сек
Каналы : 6 каналов
Расположение каналов : Front: L C R, Side: L R, LFE
Частота : 48,0 КГц
Битовая глубина : 16 бит
Метод сжатия : С потерями
Размер потока : 295 Мбайт (20%)
Выравнивание : Разделение по промежуткам
Продолжительность промежутка : 40 мс. (1,00 видеокадр)
Время предзагрузки промежутка : 500 мс.



Релизер: bizonn - http://www.rutor.org/torrent/110512/chjornyj-gorod-2010-dvdrip-licenzija

http://screenshotcomparison.com/comparison/157422 нарушен аспект и высветлен кадр



   Похожие торренты   Торрент   Размер 
В этой теме нет новых непрочитанных сообщений. Город отмороженных / Замерзший город / Valkoinen kaupunki (2006) DVDRip-AVC | A

139 | 14

1.46 ГБ

В этой теме нет новых непрочитанных сообщений. Волшебный город / Город мечты / Город чудес / Magic City [S01-02] (2012-2013) WEB-DLRip | LostFilm

40 | 4

8.23 ГБ

В этой теме нет новых непрочитанных сообщений. Черный пояс / Черный пояс (1992) DVDRip | A, L1

270 | 5

1.48 ГБ

В этой теме нет новых непрочитанных сообщений. Черный квадрат [01-12 из 12] (2010-2013) WEB-DL 1080p от Files-х

17 | 5

2.33 ГБ

В этой теме нет новых непрочитанных сообщений. OST - Чёрный лебедь / Black Swan (2010) FLAC

25 | 3

239.33 МБ

В этой теме нет новых непрочитанных сообщений. Чёрный Кузнец - Дискография [3CD] (2006-2010) FLAC

3 | 0

706.49 МБ

В этой теме нет новых непрочитанных сообщений. Чёрный лебедь / Black Swan (2010) BDRemux 1080p | D, A, L1

1 | 0

27.02 ГБ




Вы не можете начинать темы
Вы не можете отвечать на сообщения
Вы не можете редактировать свои сообщения
Вы не можете удалять свои сообщения
Вы не можете добавлять вложения

Перейти:  
 Вход
ppkBB3cker v.2 © 2008-2014 @ PPK
[ Time : 0.024s | 17 Queries | GZIP : Off ]

cron