img image001 image001 image001 image001 image001 image001 image001 image001 image001 image001 image001 image001 image001 image001 image001

Planets Sun Sun Sun
Статистика раздачи
Автор: Снежана | Размер: 744.83 МБ | Добавлен: 24 июл 2013
Раздают: 7    Качают: 2
Скачать торрент
Скачать торрент
Описание торрента

СообщениеДобавлено: 24 июл 2013 

#77

Жанр: криминал
Год выпуска: 2010
Продолжительность: 01:32:07

Режиссер: Виктор Татарский

В ролях: Дмитрий Марьянов, Александр Барановский, Екатерина Новикова, Алексей Федькин, Константин Дунаевский, Сергей Гамов, Лариса Луста, Марианна Коробейникова, Александр Стёпин, Денис Синявский...

Кинокомпания: НТВ, Триикс Медиагруп

Описание: В жизни 40-летнего следователя городской прокуратуры Олега Борина наступила черная полоса. Все началось с дела, возбужденного против студента, изнасиловавшего девушку. Подозреваемый оказался сыном влиятельного чиновника. Тот воспользовался своими связями, и Борина сначала просто отстранили, а после и вовсе выгнали со службы. Жена ушла, забрав ребенка. Вскоре раздался звонок, и старый приятель Гена предложил работу охранника. Борин согласился, собрал сумку и уехал. Только на месте большого оптового рынка его ждала полная разруха и запустение. Друга он так и не нашел, а местные алкаши рассказали, что рынок давно закрыт.
Той же ночью Олег тайно проник на территорию и… оказался в настоящем подземном городе, где протекала бурная жизнь: разгружались и загружались фуры, в цехах фасовали наркотики, работали подпольные казино и сомнительные кафе, там же ютились гастарбайтеры и в камерах содержали несовершеннолетних девочек. Увидев все ужасы, бесстрашный Олег Борин объявил этому миру войну! Удастся ли опальному следователю спасти своего друга, выйти на след хозяев порочного «Черного города» и восстановить справедливость?..



Тип релиза: DVDRip, источник DVD9 R5
Контейнер: AVI

Видео: 624x368 (1.696:1), 25.000 fps, XVID ~993 kbps avg, 0.172 bit/pixel
Аудио: 48 kHz, МР3, 2 ch, 128.00 kbps Constant
Раздача от:
Общее
Полное имя : Chenyi.gorod.2010.O.DVDRip.745MB_[Youtracker]_by_avproh.avi
Формат : AVI
Формат/Информация : Audio Video Interleave
Размер файла : 745 Мбайт
Продолжительность : 1 ч. 32 м.
Общий поток : 1130 Кбит/сек
Программа кодирования : VirtualDubMod 1.5.10.3 | www.virtualdub-fr.org || (build 2550/release)
Библиотека кодирования : VirtualDubMod build 2550/release

Видео
Идентификатор : 0
Формат : MPEG-4 Visual
Профиль формата : Advanced Simple@L5
Параметр BVOP формата : 1
Параметр QPel формата : Нет
Параметр GMC формата : Без точки перехода
Параметр матрицы формата : Выборочная
Идентификатор кодека : XVID
Идентификатор кодека/Подсказка : XviD
Продолжительность : 1 ч. 32 м.
Битрейт : 993 Кбит/сек
Ширина : 624 пикселя
Высота : 368 пикселей
Соотношение сторон : 1,696
Частота кадров : 25,000 кадров/сек
Цветовое пространство : YUV
Субдискретизация насыщенности : 4:2:0
Битовая глубина : 8 бит
Тип развёртки : Прогрессивная
Метод сжатия : С потерями
Бит/(Пиксели*Кадры) : 0.173
Размер потока : 654 Мбайт (88%)
Библиотека кодирования : XviD 65

Аудио
Идентификатор : 1
Формат : MPEG Audio
Версия формата : Version 1
Профиль формата : Layer 3
Идентификатор кодека : 55
Идентификатор кодека/Подсказка : MP3
Продолжительность : 1 ч. 32 м.
Вид битрейта : Постоянный
Битрейт : 128 Кбит/сек
Каналы : 2 канала
Частота : 48,0 КГц
Метод сжатия : С потерями
Размер потока : 84,3 Мбайт (11%)
Выравнивание : Соединение по промежуткам
Продолжительность промежутка : 40 мс. (1,00 видеокадр)
Время предзагрузки промежутка : 504 мс.





   Похожие торренты   Торрент   Размер 
В этой теме нет новых непрочитанных сообщений. Чёрный город (2010) DVDRip от Youtracker

94 | 5

1.45 ГБ

В этой теме нет новых непрочитанных сообщений. Черный город (2010) DVD9 R5 от Youtracker | лицензия

0 | 4

5.6 ГБ

В этой теме нет новых непрочитанных сообщений. Черный город (2010) DVD5 от Youtracker | сжатый

3 | 7

4.37 ГБ

В этой теме нет новых непрочитанных сообщений. Черный город (2010) DVD-5

1 | 9

4.37 ГБ

В этой теме нет новых непрочитанных сообщений. Чёрный город (2010) SATRip

0 | 3

929.99 МБ

В этой теме нет новых непрочитанных сообщений. Черный город (2010) SATRip

11 | 7

1.09 ГБ

В этой теме нет новых непрочитанных сообщений. Черный город (2010) SATRip от КинозалSAT

15 | 10

1.37 ГБ




Вы не можете начинать темы
Вы не можете отвечать на сообщения
Вы не можете редактировать свои сообщения
Вы не можете удалять свои сообщения
Вы не можете добавлять вложения

Перейти:  
Для Мосгорсуда, Роскомнадзора и рекламодателей: mosgorsud-torrent[собачка]yandex.ru
 Вход
ppkBB3cker v.2 © 2008-2014 @ PPK
[ Time : 0.036s | 17 Queries | GZIP : Off ]

cron