img image001 image001 image001 image001 image001 image001 image001 image001 image001 image001 image001 image001 image001 image001 image001

Planets Sun Sun Sun
Статистика раздачи
Автор: Снежана | Размер: 1.37 ГБ | Добавлен: 24 июл 2013
Раздают: 26    Качают: 9
Скачать торрент
Скачать торрент
Описание торрента

СообщениеДобавлено: 24 июл 2013 

#77
Информация о фильме
Название: У опасной черты
Год выхода: 1983
Жанр: Военный
Режиссер: Виктор Георгиев
В ролях: Любовь Виролайнен, Александр Збруев, Александр Граве, Эрнст Романов, Улдис Лиелдидж, Эдуард Марцевич, Евгений Лазарев, Иван Косых, Петр Фёдоров, Виктор Косых, Виктор Шульгин, Олег Куценко, Игорь Дмитриев, Ээве Киви, Евгений Дегтяренко

О фильме:
После поражения в Сталинградской битве гитлеровское командование принимается за крайние меры. Вопреки международным конвенциям, Германия собралась использовать химическое оружие. На оккупированных территориях западного СССР началось испытание образцов на военнопленных. Один из испытуемых – лейтенант-артиллерист Сергей Громов. Он решается на побег, чтобы сообщить своему командованию об опасных планах нацистов. Во время нападения партизан на автоколонну Сергею удается сбежать. После короткого сражения он пытается выйти на командование партизанами-подпольщиками и знакомится с переводчицей немецкого языка, которая имела связи в подполье. Оказавшись в среде партизан, Сергей разрабатывает план по похищению немецкого профессора, ответственного за разработку нового типа оружия.



Страна:
Студия: Мосфильм
Продолжительность: 01:28:51
Язык: Русский

Файл
Кодек: XviD
Качество: DVDRip
Видео: 720x416, 2014 kbps, 25 fps
Звук: AC3, 2 ch, 192 kbps

General
Complete name : C:u.opasnoy.cherti.1983.XviD.DVDRip.avi
Format : AVI
Format/Info : Audio Video Interleave
File size : 1.37 GiB
Duration : 1h 28mn 51s
Overall bit rate : 2 213 Kbps
Writing application : VirtualDubMod 1.5.4.1 (build 2178/release)
Writing library : VirtualDubMod build 2178/release
Video #0
ID : 0
Format : MPEG-4 Visual
Format profile : Advanced Simple@L5
Format settings, BVOP : 1
Format settings, QPel : No
Format settings, GMC : No warppoints
Format settings, Matrix : Custom
Codec ID : XVID
Codec ID/Hint : XviD
Duration : 1h 28mn 51s
Bit rate : 2 014 Kbps
Width : 720 pixels
Height : 416 pixels
Display aspect ratio : 1.731
Frame rate : 25.000 fps
Color space : YUV
Chroma subsampling : 4:2:0
Bit depth : 8 bits
Scan type : Progressive
Compression mode : Lossy
Bits/(Pixel*Frame) : 0.269
Stream size : 1.25 GiB (91%)
Writing library : XviD 64
Audio #1
ID : 1
Format : AC-3
Format/Info : Audio Coding 3
Mode extension : CM (complete main)
Format settings, Endianness : Big
Codec ID : 2000
Duration : 1h 28mn 51s
Bit rate mode : Constant
Bit rate : 192 Kbps
Channel(s) : 2 channels
Channel positions : Front: L R
Sampling rate : 48.0 KHz
Bit depth : 16 bits
Compression mode : Lossy
Stream size : 122 MiB (9%)
Alignment : Split accross interleaves
Interleave, duration : 96 ms (2.40 video frames)
Interleave, preload duration : 96 ms



, , , ,


Релиз от:



   Похожие торренты   Торрент   Размер 
В этой теме нет новых непрочитанных сообщений. У опасной черты (1983) DVDRip от ExKinoRay

6 | 5

1.08 ГБ

В этой теме нет новых непрочитанных сообщений. У опасной черты (1983) DVD5

1 | 8

4.19 ГБ

В этой теме нет новых непрочитанных сообщений. У последней черты / In extremis (2000) DVDRip

6 | 1

1.82 ГБ

В этой теме нет новых непрочитанных сообщений. Скорость: У последней черты / Exit Speed (2008) DVDRip

6 | 3

1.37 ГБ

В этой теме нет новых непрочитанных сообщений. Скорость: У последней черты / Exit Speed (2008) DVDRip от Киномагия

0 | 2

1.37 ГБ

В этой теме нет новых непрочитанных сообщений. Иван Угрин - У черты (2012) PDF

1 | 481

793.04 КБ

В этой теме нет новых непрочитанных сообщений. Alone In The Dark: У последней черты (2008) PC | RePack by R.G. Механики

279 | 32

3.23 ГБ




Вы не можете начинать темы
Вы не можете отвечать на сообщения
Вы не можете редактировать свои сообщения
Вы не можете удалять свои сообщения
Вы не можете добавлять вложения

Перейти:  
Для Мосгорсуда, Роскомнадзора и рекламодателей: mosgorsud-torrent[собачка]yandex.ru
 Вход
ppkBB3cker v.2 © 2008-2014 @ PPK
[ Time : 0.021s | 14 Queries | GZIP : On ]

Торрент трекер RUTOR.IN, Не можете зайти на rutor.org? Какой новый адрес рутор? Какое зеркало рутор? Не работает rutor.org и зеркала? Тогда наш торрент специально для вас. Rutor.in неофициальное зеркало rutor. В случае если у Вас заблокирован rutor или вдруг Вы не можете на него зайти, то Вы без труда сможете скачать бесплатно и без рекламы последние новинки кино, игр, сериалов и прочего у нас, на Rutor.in. Не нужно использовать прокси, чтобы зайти на рутор, достаточно воспользоваться нашим ресурсом. Все новые фильмы, игры, сериалы, книги и музыка за 2013 и 2014 годы через торрент бесплатно. Скачивайте фильмы в хорошем качестве, игры для пк, xbox, playstation без регистрации. У нас вы найдете новые Зарубежные сериалы и Русские сериалы 2013, 2014, 2015 годов. Оставайтесь с нами, качайте любимые фильмы, игры, сериалы, книги и музыку.