img image001 image001 image001 image001 image001 image001 image001 image001 image001 image001 image001 image001 image001 image001 image001

Planets Sun Sun Sun
Статистика раздачи
Автор: Снежана | Размер: 1.37 ГБ | Добавлен: 24 июл 2013
Раздают: 8    Качают: 2
Скачать торрент
Скачать торрент
Описание торрента

СообщениеДобавлено: 24 июл 2013 



Информация о фильме
Название: Аляска,сэр!
Год выхода: 1992
Жанр: Приключения
Режиссер: Вячеслав Ребров
В ролях: Владимир Машков, Елена Романова, Алексей Жарков, Лев Любецкий, Евгений Весник, Виктор Щербаков, Григорий Маликов, Михаил Горевой, Зинаида Дехтярева, Али Ибрагимов

О фильме:
Русский эмигрант, автогонщик, скрывающийся под именем Анджея Полянского, мечтает выкупить Аляску, чтобы жить на родной земле. Анджей приезжает в Польшу, где под ширмой участия в автогонках планирует осуществить очередное ограбление банка.Кто-то предупреждает полицию о готовящемся преступлении, но не так просто уберечь деньги, когда дело продумано до мелочей…


Страна: Россия
Студия: Студия "Русь"
Продолжительность: 01:43:10
Язык: Русский

Файл
Кодек: XviD
Качество: DVDRip
Видео: 528x400, 1707 kbps, 25 fps
Звук: AC3, 2 ch, 192 kbps, 48.0 khz

General
Complete name : C:/alyaska.ser.1992.XviD.DVDRip.avi
Format : AVI
Format/Info : Audio Video Interleave
File size : 1.37 GiB
Duration : 1h 43mn 10s
Overall bit rate : 1 906 Kbps
Writing application : VirtualDubMod 1.5.4.1 (build 2178/release)
Writing library : VirtualDubMod build 2178/release
Video #0
ID : 0
Format : MPEG-4 Visual
Format profile : Advanced Simple@L5
Format settings, BVOP : 1
Format settings, QPel : No
Format settings, GMC : No warppoints
Format settings, Matrix : Custom
Codec ID : XVID
Codec ID/Hint : XviD
Duration : 1h 43mn 10s
Bit rate : 1 707 Kbps
Width : 528 pixels
Height : 400 pixels
Display aspect ratio : 4:3
Frame rate : 25.000 fps
Color space : YUV
Chroma subsampling : 4:2:0
Bit depth : 8 bits
Scan type : Progressive
Compression mode : Lossy
Bits/(Pixel*Frame) : 0.323
Stream size : 1.23 GiB (90%)
Writing library : XviD 64
Audio #1
ID : 1
Format : AC-3
Format/Info : Audio Coding 3
Mode extension : CM (complete main)
Format settings, Endianness : Big
Codec ID : 2000
Duration : 1h 43mn 10s
Bit rate mode : Constant
Bit rate : 192 Kbps
Channel(s) : 2 channels
Channel positions : Front: L R
Sampling rate : 48.0 KHz
Bit depth : 16 bits
Compression mode : Lossy
Delay relative to video : 80ms
Stream size : 142 MiB (10%)
Alignment : Split accross interleaves
Interleave, duration : 96 ms (2.40 video frames)
Interleave, preload duration : 96 ms



, , , ,


Релиз от:



   Похожие торренты   Торрент   Размер 
В этой теме нет новых непрочитанных сообщений. Аляска Кид / Alaska Kid [S01] (1993) DVDRip | P2

35 | 8

7.73 ГБ

В этой теме нет новых непрочитанных сообщений. Аляска Кид / Alaska Kid [S01] (1993) DVDRip | P2

158 | 24

4.31 ГБ

В этой теме нет новых непрочитанных сообщений. Аляска / Alaska (1996) DVDRip от СИНЕМА-ГРУПП

70 | 11

2.06 ГБ

В этой теме нет новых непрочитанных сообщений. Тайна Аляски / Мистери, штат Аляска / Mystery, Alaska (1999) DVDRip от Humochka

44 | 13

2.06 ГБ

В этой теме нет новых непрочитанных сообщений. 1000 мест, которые стоит посетить. Аляска (Выпуск 2) / 1,000 Places to See Before You Die. Alaska (2010) DVDRip

0 | 13

700.28 МБ

В этой теме нет новых непрочитанных сообщений. Аляска Кид / Alaska Kid [1-13] (1993) TVRip

5 | 24

4.31 ГБ

В этой теме нет новых непрочитанных сообщений. Александр Павлов - Военно-морской флот России и СНГ 1992 г (1992) PDF

14 | 4

122.7 МБ




Вы не можете начинать темы
Вы не можете отвечать на сообщения
Вы не можете редактировать свои сообщения
Вы не можете удалять свои сообщения
Вы не можете добавлять вложения

Перейти:  
Для Мосгорсуда, Роскомнадзора и рекламодателей: mosgorsud-torrent[собачка]yandex.ru
 Вход
ppkBB3cker v.2 © 2008-2014 @ PPK
[ Time : 0.074s | 14 Queries | GZIP : Off ]

Торрент трекер RUTOR.IN, Не можете зайти на rutor.org? Какой новый адрес рутор? Какое зеркало рутор? Не работает rutor.org и зеркала? Тогда наш торрент специально для вас. Rutor.in неофициальное зеркало rutor. В случае если у Вас заблокирован rutor или вдруг Вы не можете на него зайти, то Вы без труда сможете скачать бесплатно и без рекламы последние новинки кино, игр, сериалов и прочего у нас, на Rutor.in. Не нужно использовать прокси, чтобы зайти на рутор, достаточно воспользоваться нашим ресурсом. Все новые фильмы, игры, сериалы, книги и музыка за 2013 и 2014 годы через торрент бесплатно. Скачивайте фильмы в хорошем качестве, игры для пк, xbox, playstation без регистрации. У нас вы найдете новые Зарубежные сериалы и Русские сериалы 2013, 2014, 2015 годов. Оставайтесь с нами, качайте любимые фильмы, игры, сериалы, книги и музыку.