img image001 image001 image001 image001 image001 image001 image001 image001 image001 image001 image001 image001 image001 image001 image001

Planets Sun Sun Sun
Статистика раздачи
Автор: Снежана | Размер: 1.37 ГБ | Добавлен: 24 июл 2013
Раздают: 23    Качают: 9
Скачать торрент
Скачать торрент
Описание торрента

СообщениеДобавлено: 24 июл 2013 



Информация о фильме
Название: Проект "Альфа"
Год выхода: 1990
Жанр: Боевик
Режиссер: Евгений Шерстобитов
В ролях: Юрий Маляров, Светлана Дирина, Софья Горшкова, Борис Руднев, Георгий Дворников, Анатолий Веденкин, Николай Малашенко, Али Самедов, Александр Жуковин, Анатолий Голик, Анатолий Лукьяненко, Виктор Чеботарев

О фильме:
Капитан Чайка обнаруживает в советских территориальных водах установленные западными разведслужбами радиобуи и подвергается нападению. Отразив врага, экипаж благополучно доставляет радиобуй на борт корабля.



Страна: СССР
Студия: Кинематографист
Продолжительность: 01:25:03
Перевод: Оригинал

Файл
Кодек: XviD
Качество: DVDRip
Видео: 544x416, 1921 kbps, 25 fps
Звук: AC3, 6 ch, 384 kbps, 48.0 khz

General
Complete name : C:proekt.alfa.1990.XviD.DVDRip.avi
Format : AVI
Format/Info : Audio Video Interleave
File size : 1.37 GiB
Duration : 1h 25mn 03s
Overall bit rate : 2 312 Kbps
Writing application : VirtualDubMod 1.5.4.1 (build 2178/release)
Writing library : VirtualDubMod build 2178/release
Video #0
ID : 0
Format : MPEG-4 Visual
Format profile : Advanced Simple@L5
Format settings, BVOP : 1
Format settings, QPel : No
Format settings, GMC : No warppoints
Format settings, Matrix : Custom
Codec ID : XVID
Codec ID/Hint : XviD
Duration : 1h 25mn 03s
Bit rate : 1 921 Kbps
Width : 544 pixels
Height : 416 pixels
Display aspect ratio : 4:3
Frame rate : 25.000 fps
Color space : YUV
Chroma subsampling : 4:2:0
Bit depth : 8 bits
Scan type : Progressive
Compression mode : Lossy
Bits/(Pixel*Frame) : 0.340
Stream size : 1.14 GiB (83%)
Writing library : XviD 64
Audio #1
ID : 1
Format : AC-3
Format/Info : Audio Coding 3
Mode extension : CM (complete main)
Format settings, Endianness : Big
Codec ID : 2000
Duration : 1h 25mn 03s
Bit rate mode : Constant
Bit rate : 384 Kbps
Channel(s) : 6 channels
Channel positions : Front: L C R, Side: L R, LFE
Sampling rate : 48.0 KHz
Bit depth : 16 bits
Compression mode : Lossy
Stream size : 234 MiB (17%)
Alignment : Split accross interleaves
Interleave, duration : 96 ms (2.40 video frames)
Interleave, preload duration : 96 ms



, , , ,


Релиз от:



   Похожие торренты   Торрент   Размер 
В этой теме нет новых непрочитанных сообщений. Проект Альфа (Яблочное зёрнышко Альфа) / Appleseed Alpha (2014) BDRip-AVC | iPad | P

110 | 7

2.06 ГБ

В этой теме нет новых непрочитанных сообщений. Проект Альфа / Яблочное зёрнышко Альфа / Appleseed Alpha (2014) HDRip | iTunes

2033 | 52

1.37 ГБ

В этой теме нет новых непрочитанных сообщений. Проект Альфа / Яблочное зёрнышко Альфа / Appleseed Alpha (2014) BDRip 720p | iTunes

1230 | 88

4.24 ГБ

В этой теме нет новых непрочитанных сообщений. Проект Альфа (Яблочное зёрнышко Альфа) / OVA (Appleseed Alpha) (2014) BDRip 1080p от NNNB | iTunes

811 | 20

8.38 ГБ

В этой теме нет новых непрочитанных сообщений. Проект Альфа / Appleseed Alpha (2014) HDRip-AVC от -=HD-NET=- | L1

128 | 10

1.36 ГБ

В этой теме нет новых непрочитанных сообщений. Проект Альфа / Appleseed Alpha (2014) HDRip | L1

2843 | 225

1.37 ГБ

В этой теме нет новых непрочитанных сообщений. Проект Альфа / Appleseed Alpha (2014) BDRemux | P

107 | 6

18.74 ГБ




Вы не можете начинать темы
Вы не можете отвечать на сообщения
Вы не можете редактировать свои сообщения
Вы не можете удалять свои сообщения
Вы не можете добавлять вложения

Перейти:  
Для Мосгорсуда, Роскомнадзора и рекламодателей: mosgorsud-torrent[собачка]yandex.ru
 Вход
ppkBB3cker v.2 © 2008-2014 @ PPK
[ Time : 0.033s | 15 Queries | GZIP : Off ]

cron