img image001 image001 image001 image001 image001 image001 image001 image001 image001 image001 image001 image001 image001 image001 image001

Planets Sun Sun Sun
Статистика раздачи
Автор: Снежана | Размер: 1.46 ГБ | Добавлен: 24 июл 2013
Раздают: 281    Качают: 13
Скачать торрент
Скачать торрент
Описание торрента

СообщениеДобавлено: 24 июл 2013 

#77
Год выпуска: 1987
Страна: СССР
Студия: Свердловская киностудия
Жанр: фантастика, фэнтези
Продолжительность: 02:11:16

Перевод: не требуется
Субтитры: нет
Оригинальная аудиодорожка: русский

Режиссер: Владимир Хотиненко

В ролях: Сергей Колтаков, Иван Бортник, Борис Галкин, Наталья Акимова, Феликс Степун, Елена Гольянова, Яков Степанов, Виктор Смирнов, Николай Стоцкий, Сергей Паршин...

Описание: Двое случайных знакомых, Сергей Пшеничный и Андрей Немчинов, волею загадочных обстоятельств переносятся почти на 40 лет назад. Этот день — 8 мая 1949 года — начинает повторяться для них с неумолимым постоянством. Каждому из героев судьба дает свой шанс: Андрей может предотвратить гибель людей в обветшавшей шахте, Сергей — по-новому взглянуть на своих родителей и понять их…





Исходник: DVD5 R5
Тип релиза: DVDRip
Контейнер: AVI

Видео: 640x432 (1.47:1), 25 fps, XviD ~ 1387 kbps avg, 0.201 bit/pixel
Аудио: 48 kHz, AC3, 2 ch, 192.00 kbps

Раздача от:
Общее
Полное имя : Zerkalo.dlja.geroja.1987.DVDRip_[Youtracker]_by_AVP Studio.avi
Формат : AVI
Формат/Информация : Audio Video Interleave
Размер файла : 1,46 Гбайт
Продолжительность : 2 ч. 11 м.
Общий поток : 1589 Кбит/сек
Программа кодирования : VirtualDubMod 1.5.10.3 | www.virtualdub-fr.org || (build 2550/release)
Библиотека кодирования : VirtualDubMod build 2550/release

Видео
Идентификатор : 0
Формат : MPEG-4 Visual
Профиль формата : Advanced Simple@L5
Параметр BVOP формата : 1
Параметр QPel формата : Нет
Параметр GMC формата : Без точки перехода
Параметр матрицы формата : Выборочная
Идентификатор кодека : XVID
Идентификатор кодека/Подсказка : XviD
Продолжительность : 2 ч. 11 м.
Битрейт : 1387 Кбит/сек
Ширина : 640 пикселей
Высота : 432 пикселя
Соотношение сторон : 3:2
Частота кадров : 25,000 кадров/сек
Цветовое пространство : YUV
Субдискретизация насыщенности : 4:2:0
Битовая глубина : 8 бит
Тип развёртки : Прогрессивная
Метод сжатия : С потерями
Бит/(Пиксели*Кадры) : 0.201
Размер потока : 1,27 Гбайт (87%)
Библиотека кодирования : XviD 65

Аудио
Идентификатор : 1
Формат : AC-3
Формат/Информация : Audio Coding 3
Расширение режима : CM (complete main)
Идентификатор кодека : 2000
Продолжительность : 2 ч. 11 м.
Вид битрейта : Постоянный
Битрейт : 192 Кбит/сек
Каналы : 2 канала
Расположение каналов : Front: L R
Частота : 48,0 КГц
Битовая глубина : 16 бит
Метод сжатия : С потерями
Размер потока : 180 Мбайт (12%)
Выравнивание : Разделение по промежуткам
Продолжительность промежутка : 40 мс. (1,00 видеокадр)
Время предзагрузки промежутка : 500 мс





   Похожие торренты   Торрент   Размер 
В этой теме нет новых непрочитанных сообщений. Зеркало, Зеркало / По ту сторону зеркала / Mirror, Mirror [S01] (1995) DVDRip от Youtracker | P

8 | 4

3.83 ГБ

В этой теме нет новых непрочитанных сообщений. Зеркало для героя [01-13] + Гала-шоу с Оксаной Пушкиной (2016) SATRip от Files-x

5 | 6

11.43 ГБ

В этой теме нет новых непрочитанных сообщений. Зеркало для героя (Гала-шоу с Оксаной Пушкиной) (2016) SATRip от Files-x

16 | 15

4.97 ГБ

В этой теме нет новых непрочитанных сообщений. Зеркало для героя [01-29] + Гала-шоу с Оксаной Пушкиной (2016) SATRip от Files-x

0 | 0

22.37 ГБ

В этой теме нет новых непрочитанных сообщений. Зеркало для героя [01-31] + Гала-шоу с Оксаной Пушкиной (2016) SATRip от Files-x

3 | 0

23.63 ГБ

В этой теме нет новых непрочитанных сообщений. Зеркало для героя [01-32] + Гала-шоу с Оксаной Пушкиной (2016) SATRip от Files-x

0 | 0

24.24 ГБ

В этой теме нет новых непрочитанных сообщений. Зеркало для героя (Гала-шоу с Оксаной Пушкиной) (2016) SATRip от Files-x

29 | 7

4.27 ГБ




Вы не можете начинать темы
Вы не можете отвечать на сообщения
Вы не можете редактировать свои сообщения
Вы не можете удалять свои сообщения
Вы не можете добавлять вложения

Перейти:  
Для Мосгорсуда, Роскомнадзора и рекламодателей: mosgorsud-torrent[собачка]yandex.ru
 Вход
ppkBB3cker v.2 © 2008-2014 @ PPK
[ Time : 0.047s | 14 Queries | GZIP : Off ]
CGP output time : 0.044s | 7 Queries | GZIP : Off

Торрент трекер RUTOR.IN, Не можете зайти на rutor.org? Какой новый адрес рутор? Какое зеркало рутор? Не работает rutor.org и зеркала? Тогда наш торрент специально для вас. Rutor.in неофициальное зеркало rutor. В случае если у Вас заблокирован rutor или вдруг Вы не можете на него зайти, то Вы без труда сможете скачать бесплатно и без рекламы последние новинки кино, игр, сериалов и прочего у нас, на Rutor.in. Не нужно использовать прокси, чтобы зайти на рутор, достаточно воспользоваться нашим ресурсом. Все новые фильмы, игры, сериалы, книги и музыка за 2013 и 2014 годы через торрент бесплатно. Скачивайте фильмы в хорошем качестве, игры для пк, xbox, playstation без регистрации. У нас вы найдете новые Зарубежные сериалы и Русские сериалы 2013, 2014, 2015 годов. Оставайтесь с нами, качайте любимые фильмы, игры, сериалы, книги и музыку.