img image001 image001 image001 image001 image001 image001 image001 image001 image001 image001 image001 image001 image001 image001 image001

Planets Sun Sun Sun
Статистика раздачи
Автор: Снежана | Размер: 4.1 ГБ | Добавлен: 24 июл 2013
Раздают: 4    Качают: 3
Скачать торрент
Скачать торрент
Описание торрента

СообщениеДобавлено: 24 июл 2013 

#77

Информация о фильме
Название: Стальная бабочка
Год выхода: 2012
Жанр: Драма, криминал, детектив
Режиссер: Ренат Давлетьяров
В ролях: Дарья Мельникова, Анатолий Белый, Дарья Мороз, Елена Галубина, Андрей Казаков, Петр Винс, Алексей Семченков, Максим Дромашко, Виктор Немец, Мария Наумова

О фильме:
Беглые беспризорники во главе с юной Чумой зарабатывают на пропитание дерзкими ограблениями. Попавшись в очередной раз на разбое, Чума вынуждена под давлением полиции стать живой приманкой для серийного убийцы. Если она пополнит список жертв, искать ее никто не станет. Почерк маньяка одинаков, все девушки похожи, а место охоты — лесной массив на окраине Москвы. Для опера Ханина поимка монстра не просто вопрос чести, но и цена погон. А для Чумы — цена свободы. Общая цель сближает юную беспризорницу и взрослого циничного опера.



Страна: Россия
Студия: Интерфест
Продолжительность: 01:46:41
Перевод: Не требуется

Файл
Кодек: AVC
Качество: BDRip 720p
Видео: 1280x720, 24 fps, 4637 Kbps
Звук: DTS, 6 ch, 48 kHz, 755 Kbps
Дополнительно: Сохранены оригинальные чаптеры как на Blu-Ray.

Семпл

General
Unique ID : 173155626338618104958164919423404082617 (0x82448F8233954BF5BEC29FC5D3C805B9)
Complete name : F:Загрузки µTorrentStalnaya.babochka.2012.O.BDRip.720p..mkv
Format : Matroska
Format version : Version 2
File size : 4.10 GiB
Duration : 1h 46mn
Overall bit rate : 5 501 Kbps
Movie name : IRONCLUB
Encoded date : UTC 2012-11-23 07:56:02
Writing application : mkvmerge v4.9.1 ('Ich will') built on Jul 11 2011 23:53:15
Writing library : libebml v1.2.1 + libmatroska v1.1.1

Video
ID : 1
Format : AVC
Format/Info : Advanced Video Codec
Format profile : High@L4.1
Format settings, CABAC : Yes
Format settings, ReFrames : 9 frames
Codec ID : V_MPEG4/ISO/AVC
Duration : 1h 46mn
Bit rate : 4 637 Kbps
Width : 1 280 pixels
Height : 720 pixels
Display aspect ratio : 16:9
Frame rate : 24.000 fps
Color space : YUV
Chroma subsampling : 4:2:0
Bit depth : 8 bits
Scan type : Progressive
Bits/(Pixel*Frame) : 0.210
Stream size : 3.46 GiB (84%)
Title : Stalnaya.babochka.2012 720p BluRay DTS x264-IRONCLUB
Writing library : x264 core 129 r2230 1cffe9f
Encoding settings : cabac=1 / ref=9 / deblock=1:-3:-3 / analyse=0x3:0x113 / me=umh / subme=11 / psy=1 / psy_rd=1.05:0.00 / mixed_ref=1 / me_range=32 / chroma_me=1 / trellis=2 / 8x8dct=1 / cqm=0 / deadzone=21,11 / fast_pskip=0 / chroma_qp_offset=-2 / threads=12 / lookahead_threads=2 / sliced_threads=0 / nr=0 / decimate=1 / interlaced=0 / bluray_compat=0 / constrained_intra=0 / bframes=9 / b_pyramid=2 / b_adapt=2 / b_bias=0 / direct=3 / weightb=1 / open_gop=0 / weightp=2 / keyint=240 / keyint_min=24 / scenecut=40 / intra_refresh=0 / rc_lookahead=60 / rc=crf / mbtree=0 / crf=17.0 / qcomp=0.70 / qpmin=0 / qpmax=69 / qpstep=4 / vbv_maxrate=50000 / vbv_bufsize=62500 / crf_max=0.0 / nal_hrd=none / ip_ratio=1.30 / pb_ratio=1.20 / aq=1:0.90
Language : Russian
Default : Yes
Forced : Yes
Matrix coefficients : BT.709-5, BT.1361, IEC 61966-2-4 709, SMPTE RP177

Audio
ID : 2
Format : DTS
Format/Info : Digital Theater Systems
Codec ID : A_DTS
Duration : 1h 46mn
Bit rate mode : Constant
Bit rate : 755 Kbps
Channel(s) : 6 channels
Channel positions : Front: L C R, Side: L R, LFE
Sampling rate : 48.0 KHz
Bit depth : 24 bits
Compression mode : Lossy
Stream size : 576 MiB (14%)
Title : DTS 5.1 @ 768 kbps - O, BD RUS
Language : Russian
Default : Yes
Forced : Yes

Menu
00:00:00.000 : ru:00:00:00.000
00:00:43.916 : ru:00:00:43.916
00:09:05.833 : ru:00:09:05.833
00:23:03.833 : ru:00:23:03.833
00:34:57.333 : ru:00:34:57.333
00:52:50.541 : ru:00:52:50.541
01:11:15.958 : ru:01:11:15.958
01:22:36.500 : ru:01:22:36.500
01:40:52.416 : ru:01:40:52.416



Релиз от:



   Похожие торренты   Торрент   Размер 
В этой теме нет новых непрочитанных сообщений. Стальная бабочка (2012) BDRip-AVC от potroks | Лицензия

629 | 26

1.46 ГБ

В этой теме нет новых непрочитанных сообщений. Стальная бабочка (2012) BDRip от HQCLUB | Лицензия

51 | 4

1.99 ГБ

В этой теме нет новых непрочитанных сообщений. Стальная бабочка (2012) BDRip 720p от HQ-ViDEO

127 | 14

4.37 ГБ

В этой теме нет новых непрочитанных сообщений. Стальная бабочка (2012) НDRip | КПК от Generalfilm | Лицензия

7 | 4

365.53 МБ

В этой теме нет новых непрочитанных сообщений. Стальная бабочка (2012) HDRip от Scarabey | Лицензия

218 | 10

743.56 МБ

В этой теме нет новых непрочитанных сообщений. Стальная бабочка (2012) HDRip от Scarabey | Лицензия

356 | 22

1.45 ГБ

В этой теме нет новых непрочитанных сообщений. Стальная бабочка (2012) HDRip от Scarabey | Лицензия

404 | 5

2.05 ГБ




Вы не можете начинать темы
Вы не можете отвечать на сообщения
Вы не можете редактировать свои сообщения
Вы не можете удалять свои сообщения
Вы не можете добавлять вложения

Перейти:  
Для Мосгорсуда, Роскомнадзора и рекламодателей: mosgorsud-torrent[собачка]yandex.ru
 Вход
ppkBB3cker v.2 © 2008-2014 @ PPK
[ Time : 0.044s | 15 Queries | GZIP : Off ]

Торрент трекер RUTOR.IN, Не можете зайти на rutor.org? Какой новый адрес рутор? Какое зеркало рутор? Не работает rutor.org и зеркала? Тогда наш торрент специально для вас. Rutor.in неофициальное зеркало rutor. В случае если у Вас заблокирован rutor или вдруг Вы не можете на него зайти, то Вы без труда сможете скачать бесплатно и без рекламы последние новинки кино, игр, сериалов и прочего у нас, на Rutor.in. Не нужно использовать прокси, чтобы зайти на рутор, достаточно воспользоваться нашим ресурсом. Все новые фильмы, игры, сериалы, книги и музыка за 2013 и 2014 годы через торрент бесплатно. Скачивайте фильмы в хорошем качестве, игры для пк, xbox, playstation без регистрации. У нас вы найдете новые Зарубежные сериалы и Русские сериалы 2013, 2014, 2015 годов. Оставайтесь с нами, качайте любимые фильмы, игры, сериалы, книги и музыку.
cron