img image001 image001 image001 image001 image001 image001 image001 image001 image001 image001 image001 image001 image001 image001 image001

Planets Sun Sun Sun
Статистика раздачи
Автор: Снежана | Размер: 17.34 ГБ | Добавлен: 24 июл 2013
Раздают: 2    Качают: 4
Скачать торрент
Скачать торрент
Описание торрента

СообщениеДобавлено: 24 июл 2013 

#77

Информация о фильме
Название: Стальная бабочка
Год выпуска: 2012
Производство: Интерфест [Россия]
Жанр: Драма, криминал, детектив
Перевод: Не требуется [Русский язык]
Субтитры: Отсутствуют

Режиссер: Ренат Давлетьяров
Актеры: Дарья Мельникова, Анатолий Белый, Дарья Мороз, Елена Галубина, Андрей Казаков, Петр Винс, Алексей Семченков, Максим Дромашко, Виктор Немец, Мария Наумова

О фильме:
Беглые беспризорники во главе с юной Чумой зарабатывают на пропитание дерзкими ограблениями. Попавшись в очередной раз на разбое, Чума вынуждена под давлением полиции стать живой приманкой для серийного убийцы. Если она пополнит список жертв, искать ее никто не станет. Почерк маньяка одинаков, все девушки похожи, а место охоты — лесной массив на окраине Москвы. Для опера Ханина поимка монстра не просто вопрос чести, но и цена погон. А для Чумы — цена свободы. Общая цель сближает юную беспризорницу и взрослого циничного опера.



Файл
Продолжительность: 01:46:41
Качество видео: BDRemux
Видеокодек: MPEG4_AVC/H.264
Видео: 1920x1080, ~ 22.1 Mbps, Bit/Pixel: 0.443
Аудио: DTS 5.1, 755 kbps [Русский]

Релиз от:
Полное имя : D:Стальная.бабочка.(2012).[1080p].BDRemux.nnm-club.mkv
Формат : Matroska
Версия формата : Version 2
Размер файла : 17,3 Гбайт
Продолжительность : 1 ч. 46 м.
Режим общего битрейта : Переменный
Общий поток : 23,3 Мбит/сек
Название фильма : Release by Lelya_K for NNM-Club
Дата кодирования : UTC 2012-11-23 15:13:44
Программа кодирования : mkvmerge v5.7.0 ('The Whirlwind') built on Aug 7 2012 14:11:40
Библиотека кодирования : libebml v1.2.3 + libmatroska v1.3.0

Видео
Идентификатор : 1
Формат : AVC
Формат/Информация : Advanced Video Codec
Профиль формата : High@L4.1
Параметр CABAC формата : Да
Параметр ReFrames формата : 3 кадра
Параметр GOP формата : M=3, N=24
Идентификатор кодека : V_MPEG4/ISO/AVC
Продолжительность : 1 ч. 46 м.
Вид битрейта : Переменный
Битрейт : 22,1 Мбит/сек
Максимальный битрейт : 30,0 Мбит/сек
Ширина : 1920 пикселей
Высота : 1080 пикселей
Соотношение сторон : 16:9
Режим частоты кадров : Постоянный
Частота кадров : 24,000 кадра/сек
Стандарт вещания : NTSC
Цветовое пространство : YUV
Субдискретизация насыщенности : 4:2:0
Битовая глубина : 8 бит
Тип развёртки : Прогрессивная
Бит/(Пиксели*Кадры) : 0.443
Размер потока : 16,4 Гбайт (95%)
Заголовок : Стальная.бабочка.(2012).[1080p].BDRemux
Default : Да
Forced : Нет
Основные цвета : BT.709
Характеристики трансфера : BT.709
Коэффициенты матрицы : BT.709

Аудио
Идентификатор : 2
Формат : DTS
Формат/Информация : Digital Theater Systems
Идентификатор кодека : A_DTS
Продолжительность : 1 ч. 46 м.
Вид битрейта : Постоянный
Битрейт : 755 Кбит/сек
Каналы : 6 каналов
Расположение каналов : Front: L C R, Side: L R, LFE
Частота : 48,0 КГц
Битовая глубина : 24 бит
Метод сжатия : С потерями
Размер потока : 576 Мбайт (3%)
Язык : Russian
Default : Да
Forced : Нет

Меню
00:00:00.000 : en:Chapter 0
00:00:43.916 : en:Chapter 1
00:09:05.833 : en:Chapter 2
00:23:03.833 : en:Chapter 3
00:34:57.333 : en:Chapter 4
00:52:50.541 : en:Chapter 5
01:11:15.958 : en:Chapter 6
01:22:36.500 : en:Chapter 7
01:40:52.416 : en:Chapter 8




   Похожие торренты   Торрент   Размер 
В этой теме нет новых непрочитанных сообщений. Стальная бабочка (2012) BDRip 1080p

160 | 8

4.37 ГБ

В этой теме нет новых непрочитанных сообщений. Стальная бабочка (2012) BDRip-AVC | iPad

28 | 2

1.52 ГБ

В этой теме нет новых непрочитанных сообщений. Стальная бабочка (2012) BDRip от HQ-ViDEO

350 | 6

2.05 ГБ

В этой теме нет новых непрочитанных сообщений. Стальная бабочка (2012) BDRip 720p от HQ-ViDEO

127 | 14

4.37 ГБ

В этой теме нет новых непрочитанных сообщений. Стальная бабочка (2012) BDRip-AVC от potroks | Лицензия

629 | 26

1.46 ГБ

В этой теме нет новых непрочитанных сообщений. Стальная бабочка (2012) BDRip от HQCLUB | Лицензия

51 | 4

1.99 ГБ

В этой теме нет новых непрочитанных сообщений. Стальная бабочка (2012) HDRip от Scarabey | Лицензия

218 | 10

743.56 МБ




Вы не можете начинать темы
Вы не можете отвечать на сообщения
Вы не можете редактировать свои сообщения
Вы не можете удалять свои сообщения
Вы не можете добавлять вложения

Перейти:  
Для Мосгорсуда, Роскомнадзора и рекламодателей: mosgorsud-torrent[собачка]yandex.ru
 Вход
ppkBB3cker v.2 © 2008-2014 @ PPK
[ Time : 0.062s | 16 Queries | GZIP : Off ]

Торрент трекер RUTOR.IN, Не можете зайти на rutor.org? Какой новый адрес рутор? Какое зеркало рутор? Не работает rutor.org и зеркала? Тогда наш торрент специально для вас. Rutor.in неофициальное зеркало rutor. В случае если у Вас заблокирован rutor или вдруг Вы не можете на него зайти, то Вы без труда сможете скачать бесплатно и без рекламы последние новинки кино, игр, сериалов и прочего у нас, на Rutor.in. Не нужно использовать прокси, чтобы зайти на рутор, достаточно воспользоваться нашим ресурсом. Все новые фильмы, игры, сериалы, книги и музыка за 2013 и 2014 годы через торрент бесплатно. Скачивайте фильмы в хорошем качестве, игры для пк, xbox, playstation без регистрации. У нас вы найдете новые Зарубежные сериалы и Русские сериалы 2013, 2014, 2015 годов. Оставайтесь с нами, качайте любимые фильмы, игры, сериалы, книги и музыку.
cron