img image001 image001 image001 image001 image001 image001 image001 image001 image001 image001 image001 image001 image001 image001 image001

Planets Sun Sun Sun
Статистика раздачи
Автор: Снежана | Размер: 5.39 ГБ | Добавлен: 24 июл 2013
Раздают: 11    Качают: 3
Скачать торрент
Скачать торрент
Описание торрента

СообщениеДобавлено: 24 июл 2013 

#77

Информация о фильме
Название: Любовь с акцентом
Год выхода: 2012
Жанр: Приключения, комедия
Режиссер: Резо Гигинеишвили
В ролях: Филипп Янковский, Артур Смольянинов, Ирина Пегова, Анна Михалкова, Надежда Михалкова, Дута Схиртладзе, Светлана Бондарчук, Георгий Кипшидзе, Никита Ефремов, Ольга Баблуани

О фильме:
«Любовь с акцентом» — фильм о настоящей любви: яркой и страстной, зрелой и беспощадной, наивной и нелепой, счастливой и не очень. Истории героев сплетаются в одну большую ироничную комедию о том, что настоящая любовь не знает ни границ, ни законов, ни национальностей. Романтические приключения таких разных и непохожих друг на друга героев под аккомпанемент завораживающей южной природы.



Страна: Россия
Студия: апрельМИГпикчерс, Студия «Независимый Кинопроект»
Продолжительность: 01:43:49
Перевод: Не требуется

Файл
Формат: MKV
Качество: BDRip 720p
Видео: MPEG-4 AVC, 6700 Кбит/с, 1280x544, 24 кадр/c
Звук: Русский (DTS, 6 ch, 768 Кбит/с)
Субтитры: Английские


x264 [info]: frame I:1131 Avg QP:16.42 size:152363
x264 [info]: frame P:34577 Avg QP:18.69 size: 57076
x264 [info]: frame B:113807 Avg QP:20.85 size: 26787

General
Unique ID : 227285220170324626479022521848753273871 (0xAAFD8A886E42E2B788EE2B53F5FBBC0F)
Complete name : Lubov.s.akcentom.2012.720p.Bluray.Rus.HDCLUB.mkv
Format : Matroska
Format version : Version 2
File size : 5.39 GiB
Duration : 1h 43mn
Overall bit rate : 7 427 Kbps
Movie name : HDCLUB present "Lubov s akcentom (2012)"
Encoded date : UTC 2012-12-05 02:40:33
Writing application : mkvmerge v5.8.0 ('No Sleep / Pillow') built on Sep 2 2012 15:37:04
Writing library : libebml v1.2.3 + libmatroska v1.3.0

Video
ID : 1
Format : AVC
Format/Info : Advanced Video Codec
Format profile : High@L4.1
Format settings, CABAC : Yes
Format settings, ReFrames : 9 frames
Codec ID : V_MPEG4/ISO/AVC
Duration : 1h 43mn
Bit rate : 6 700 Kbps
Width : 1 280 pixels
Height : 544 pixels
Display aspect ratio : 2.35:1
Frame rate mode : Constant
Frame rate : 24.000 fps
Color space : YUV
Chroma subsampling : 4:2:0
Bit depth : 8 bits
Scan type : Progressive
Bits/(Pixel*Frame) : 0.401
Stream size : 4.73 GiB (88%)
Title : Lubov.s.akcentom.2012.720p.Bluray.Rus.HDCLUB
Writing library : x264 core 129 r2230 1cffe9f
Encoding settings : cabac=1 / ref=9 / deblock=1:-3:-3 / analyse=0x3:0x133 / me=umh / subme=11 / psy=1 / psy_rd=1.05:0.00 / mixed_ref=1 / me_range=32 / chroma_me=1 / trellis=2 / 8x8dct=1 / cqm=0 / deadzone=21,11 / fast_pskip=0 / chroma_qp_offset=-1 / threads=12 / lookahead_threads=2 / sliced_threads=0 / nr=0 / decimate=1 / interlaced=0 / bluray_compat=0 / constrained_intra=0 / bframes=8 / b_pyramid=2 / b_adapt=2 / b_bias=0 / direct=3 / weightb=1 / open_gop=0 / weightp=2 / keyint=250 / keyint_min=23 / scenecut=40 / intra_refresh=0 / rc_lookahead=60 / rc=2pass / mbtree=0 / bitrate=6700 / ratetol=1.0 / qcomp=0.60 / qpmin=0 / qpmax=69 / qpstep=4 / cplxblur=20.0 / qblur=0.5 / vbv_maxrate=50000 / vbv_bufsize=62500 / nal_hrd=none / ip_ratio=1.40 / pb_ratio=1.30 / aq=1:0.80
Language : Russian
Default : Yes
Forced : Yes

Audio
ID : 2
Format : DTS
Format/Info : Digital Theater Systems
Mode : 16
Format settings, Endianness : Big
Codec ID : A_DTS
Duration : 1h 43mn
Bit rate mode : Constant
Bit rate : 755 Kbps
Channel(s) : 6 channels
Channel positions : Front: L C R, Side: L R, LFE
Sampling rate : 48.0 KHz
Bit depth : 24 bits
Compression mode : Lossy
Stream size : 560 MiB (10%)
Title : DTS 5.1 @ 768 kbps - Original [Blu-ray]
Language : Russian
Default : Yes
Forced : Yes

Text
ID : 3
Format : UTF-8
Codec ID : S_TEXT/UTF8
Codec ID/Info : UTF-8 Plain Text
Language : English
Default : No
Forced : No

Menu
00:00:00.000 : ru:Chapter 1
00:00:31.000 : ru:Chapter 2
00:09:32.166 : ru:Chapter 3
00:21:17.375 : ru:Chapter 4
00:31:37.000 : ru:Chapter 5
00:40:41.000 : ru:Chapter 6
00:56:51.000 : ru:Chapter 7
01:15:34.000 : ru:Chapter 8
01:35:09.000 : ru:Chapter 9















   Похожие торренты   Торрент   Размер 
В этой теме нет новых непрочитанных сообщений. Любовь с акцентом (2012) BDRip от HQCLUB | Лицензия

71 | 23

1.46 ГБ

В этой теме нет новых непрочитанных сообщений. Любовь с акцентом (2012) BDRip-AVC от potroks | Лицензия

35 | 3

1.46 ГБ

В этой теме нет новых непрочитанных сообщений. Любовь с акцентом (2012) BDRip-AVC от ExKinoRay | Лицензия

17 | 4

2.23 ГБ

В этой теме нет новых непрочитанных сообщений. Любовь с акцентом (2012) HDRip | Лицензия

13 | 6

703.58 МБ

В этой теме нет новых непрочитанных сообщений. Любовь с акцентом (2012) HDRip от Generalfilm | КПК | Лицензия

4 | 2

394.52 МБ

В этой теме нет новых непрочитанных сообщений. Любовь с акцентом (2012) DVDRip от Scarabey | Лицензия

11 | 4

1.45 ГБ

В этой теме нет новых непрочитанных сообщений. Любовь с акцентом (2012) DVDRip от Scarabey | Лицензия

3 | 3

743.68 МБ




Вы не можете начинать темы
Вы не можете отвечать на сообщения
Вы не можете редактировать свои сообщения
Вы не можете удалять свои сообщения
Вы не можете добавлять вложения

Перейти:  
Для Мосгорсуда, Роскомнадзора и рекламодателей: mosgorsud-torrent[собачка]yandex.ru
 Вход
ppkBB3cker v.2 © 2008-2014 @ PPK
[ Time : 0.029s | 14 Queries | GZIP : Off ]

Торрент трекер RUTOR.IN, Не можете зайти на rutor.org? Какой новый адрес рутор? Какое зеркало рутор? Не работает rutor.org и зеркала? Тогда наш торрент специально для вас. Rutor.in неофициальное зеркало rutor. В случае если у Вас заблокирован rutor или вдруг Вы не можете на него зайти, то Вы без труда сможете скачать бесплатно и без рекламы последние новинки кино, игр, сериалов и прочего у нас, на Rutor.in. Не нужно использовать прокси, чтобы зайти на рутор, достаточно воспользоваться нашим ресурсом. Все новые фильмы, игры, сериалы, книги и музыка за 2013 и 2014 годы через торрент бесплатно. Скачивайте фильмы в хорошем качестве, игры для пк, xbox, playstation без регистрации. У нас вы найдете новые Зарубежные сериалы и Русские сериалы 2013, 2014, 2015 годов. Оставайтесь с нами, качайте любимые фильмы, игры, сериалы, книги и музыку.