img image001 image001 image001 image001 image001 image001 image001 image001 image001 image001 image001 image001 image001 image001 image001

Planets Sun Sun Sun
Статистика раздачи
Автор: Снежана | Размер: 2.19 ГБ | Добавлен: 24 июл 2013
Раздают: 123    Качают: 20
Скачать торрент
Скачать торрент
Описание торрента

СообщениеДобавлено: 24 июл 2013 

#77

Жанр: криминальный боевик.
Год выпуска: 2002
Продолжительность: 00:50:33 + 00:50:37 + 00:51:05

Режиссёр: Егор Кончаловский

В ролях: Гоша Куценко, Михаил Ульянов, Сергей Шакуров, Александр Балуев, Евгений Сидихин, Виктор Сухоруков, Михаил Ефремов, Вячеслав Разбегаев, Сергей Векслер, Иван Бортник, Виктория Толстоганова, Любовь Толкалина, Александр Белявский, Юрий Кузнецов, Алексей Сафонов, Н. Макаров, Борис Каморзин, Вячеслав Молоков, Валентин Голубенко, Юрий Шерстнёв, Юсуп Бахшиев, Сергей Габриэлян, Сергей Шеховцов, Игорь Ганжа, Александр Тютин, Николай Чиндяйкин, Юрий Лахин, Фуад Ибрагимбеков, Иван Громов, Валерий Трошин, Сергей Апрельский, Юрий Думчев, Никита Логинов, Георгий Параджанов, Александр Жмакин, Леонид Громов, Валентина Березуцкая, Владимир Зайцев, Егор Кончаловский, Мария Порошина, Полина Сидихина, Дмитрий Миллер

Описание: Бывший сотрудник уголовного розыска майор Коренев (Лис) освобождается из заключения. Увы, Фемида бывает слепа. Немалую роль в этом сыграл один из криминальных авторитетов города - Шаман. Сведение счетов с Шаманом и предавшими его коллегами не входило в планы Коренева, оказавшегося в родном городе, который захлестнула волна криминальных войн. Однако, столкнувшись с невероятным преступным беспределом и гибелью друзей, бывший майор принимает решение навести порядок своими методами...

Доп. информация: Телевизионная версия фильма из трех серий.

Семпл 1 серии: http://multi-up.com/801237
Семпл 2 серии: http://multi-up.com/801243
Семпл 3 серии: http://multi-up.com/801244

Качество видео: DVDRip
Формат видео: AVI
Видео 1 серии: 688x384 (1.79:1), 25 fps, XviD build 50 ~1870 kbps avg, 0.28 bit/pixel
Видео 2 серии: 688x384 (1.79:1), 25 fps, XviD build 50 ~1865 kbps avg, 0.28 bit/pixel
Видео 3 серии: 688x384 (1.79:1), 25 fps, XviD build 50 ~1849 kbps avg, 0.28 bit/pixel
Аудио: 48 kHz, AC3 Dolby Digital, 2/0 (L,R) ch, ~192 kbps
Общее
Полное имя : G:ФильмыАнтикиллер_тв версия_2002_DVDRip_от YoutrackerAntikiller_1_seria_TV.avi
Формат : AVI
Формат/Информация : Audio Video Interleave
Размер файла : 749 Мбайт
Продолжительность : 50 м.
Общий поток : 2072 Кбит/сек
Программа кодирования : VirtualDubMod 1.5.10.2 (build 2540/release)
Библиотека кодирования : VirtualDubMod build 2540/release

Видео
Идентификатор : 0
Формат : MPEG-4 Visual
Профиль формата : Advanced Simple@L5
Параметр BVOP формата : 1
Параметр QPel формата : Нет
Параметр GMC формата : Без точки перехода
Параметр матрицы формата : Default (MPEG)
Идентификатор кодека : XVID
Идентификатор кодека/Подсказка : XviD
Продолжительность : 50 м.
Битрейт : 1871 Кбит/сек
Ширина : 688 пикселей
Высота : 384 пикселя
Соотношение сторон : 16:9
Частота кадров : 25,000 кадров/сек
Цветовое пространство : YUV
Субдискретизация насыщенности : 4:2:0
Битовая глубина : 8 бит
Тип развёртки : Прогрессивная
Метод сжатия : С потерями
Бит/(Пиксели*Кадры) : 0.283
Размер потока : 676 Мбайт (90%)
Библиотека кодирования : XviD 1.2.1 (UTC 2008-12-04)

Аудио
Идентификатор : 1
Формат : AC-3
Формат/Информация : Audio Coding 3
Расширение режима : CM (complete main)
Параметр Endianness формата : Big
Идентификатор кодека : 2000
Продолжительность : 50 м.
Вид битрейта : Постоянный
Битрейт : 192 Кбит/сек
Каналы : 2 канала
Расположение каналов : Front: L R
Частота : 48,0 КГц
Битовая глубина : 16 бит
Метод сжатия : С потерями
Размер потока : 69,4 Мбайт (9%)
Выравнивание : Соединение по промежуткам
Продолжительность промежутка : 40 мс. (1,00 видеокадр)
Время предзагрузки промежутка : 512 мс.


Общее
Полное имя : G:ФильмыАнтикиллер_тв версия_2002_DVDRip_от YoutrackerAntikiller_2_seria_TV.avi
Формат : AVI
Формат/Информация : Audio Video Interleave
Размер файла : 748 Мбайт
Продолжительность : 50 м.
Общий поток : 2067 Кбит/сек
Программа кодирования : VirtualDubMod 1.5.10.2 (build 2540/release)
Библиотека кодирования : VirtualDubMod build 2540/release

Видео
Идентификатор : 0
Формат : MPEG-4 Visual
Профиль формата : Advanced Simple@L5
Параметр BVOP формата : 1
Параметр QPel формата : Нет
Параметр GMC формата : Без точки перехода
Параметр матрицы формата : Default (MPEG)
Идентификатор кодека : XVID
Идентификатор кодека/Подсказка : XviD
Продолжительность : 50 м.
Битрейт : 1865 Кбит/сек
Ширина : 688 пикселей
Высота : 384 пикселя
Соотношение сторон : 16:9
Частота кадров : 25,000 кадров/сек
Цветовое пространство : YUV
Субдискретизация насыщенности : 4:2:0
Битовая глубина : 8 бит
Тип развёртки : Прогрессивная
Метод сжатия : С потерями
Бит/(Пиксели*Кадры) : 0.282
Размер потока : 675 Мбайт (90%)
Библиотека кодирования : XviD 1.2.1 (UTC 2008-12-04)

Аудио
Идентификатор : 1
Формат : AC-3
Формат/Информация : Audio Coding 3
Расширение режима : CM (complete main)
Параметр Endianness формата : Big
Идентификатор кодека : 2000
Продолжительность : 50 м.
Вид битрейта : Постоянный
Битрейт : 192 Кбит/сек
Каналы : 2 канала
Расположение каналов : Front: L R
Частота : 48,0 КГц
Битовая глубина : 16 бит
Метод сжатия : С потерями
Размер потока : 69,5 Мбайт (9%)
Выравнивание : Соединение по промежуткам
Продолжительность промежутка : 40 мс. (1,00 видеокадр)
Время предзагрузки промежутка : 512 мс.


Общее
Полное имя : G:ФильмыАнтикиллер_тв версия_2002_DVDRip_от YoutrackerAntikiller_3_seria_TV.avi
Формат : AVI
Формат/Информация : Audio Video Interleave
Размер файла : 750 Мбайт
Продолжительность : 51 м.
Общий поток : 2051 Кбит/сек
Программа кодирования : VirtualDubMod 1.5.10.2 (build 2540/release)
Библиотека кодирования : VirtualDubMod build 2540/release

Видео
Идентификатор : 0
Формат : MPEG-4 Visual
Профиль формата : Advanced Simple@L5
Параметр BVOP формата : 1
Параметр QPel формата : Нет
Параметр GMC формата : Без точки перехода
Параметр матрицы формата : Default (MPEG)
Идентификатор кодека : XVID
Идентификатор кодека/Подсказка : XviD
Продолжительность : 51 м.
Битрейт : 1850 Кбит/сек
Ширина : 688 пикселей
Высота : 384 пикселя
Соотношение сторон : 16:9
Частота кадров : 25,000 кадров/сек
Цветовое пространство : YUV
Субдискретизация насыщенности : 4:2:0
Битовая глубина : 8 бит
Тип развёртки : Прогрессивная
Метод сжатия : С потерями
Бит/(Пиксели*Кадры) : 0.280
Размер потока : 676 Мбайт (90%)
Библиотека кодирования : XviD 1.2.1 (UTC 2008-12-04)

Аудио
Идентификатор : 1
Формат : AC-3
Формат/Информация : Audio Coding 3
Расширение режима : CM (complete main)
Параметр Endianness формата : Big
Идентификатор кодека : 2000
Продолжительность : 51 м.
Вид битрейта : Постоянный
Битрейт : 192 Кбит/сек
Каналы : 2 канала
Расположение каналов : Front: L R
Частота : 48,0 КГц
Битовая глубина : 16 бит
Метод сжатия : С потерями
Размер потока : 70,2 Мбайт (9%)
Выравнивание : Соединение по промежуткам
Продолжительность промежутка : 40 мс. (1,00 видеокадр)
Время предзагрузки промежутка : 512 мс.







Релиз от:



   Похожие торренты   Торрент   Размер 
В этой теме нет новых непрочитанных сообщений. Антикиллер (2002) DVDRip

428 | 17

1.37 ГБ

В этой теме нет новых непрочитанных сообщений. Антикиллер (2002) DVDRip от NNMClub

275 | 14

2.17 ГБ

В этой теме нет новых непрочитанных сообщений. Антикиллер (2002) DVDRip-AVC от olegek70

203 | 22

1.45 ГБ

В этой теме нет новых непрочитанных сообщений. Антикиллер: Трилогия (2002-2009) DVDRip

148 | 26

4.37 ГБ

В этой теме нет новых непрочитанных сообщений. Антикиллер 2: Антитеррор (2003) DVDRip

191 | 30

1.37 ГБ

В этой теме нет новых непрочитанных сообщений. Антикиллер Д.К: Любовь без памяти (2009) DVDRip

25 | 6

700.9 МБ

В этой теме нет новых непрочитанных сообщений. Антикиллер 2: Антитеррор (2003) DVDRip-AVC от olegek70

167 | 25

1.45 ГБ




Вы не можете начинать темы
Вы не можете отвечать на сообщения
Вы не можете редактировать свои сообщения
Вы не можете удалять свои сообщения
Вы не можете добавлять вложения

Перейти:  
Для Мосгорсуда, Роскомнадзора и рекламодателей: mosgorsud-torrent[собачка]yandex.ru
 Вход
ppkBB3cker v.2 © 2008-2014 @ PPK
[ Time : 0.047s | 14 Queries | GZIP : On ]

Торрент трекер RUTOR.IN, Не можете зайти на rutor.org? Какой новый адрес рутор? Какое зеркало рутор? Не работает rutor.org и зеркала? Тогда наш торрент специально для вас. Rutor.in неофициальное зеркало rutor. В случае если у Вас заблокирован rutor или вдруг Вы не можете на него зайти, то Вы без труда сможете скачать бесплатно и без рекламы последние новинки кино, игр, сериалов и прочего у нас, на Rutor.in. Не нужно использовать прокси, чтобы зайти на рутор, достаточно воспользоваться нашим ресурсом. Все новые фильмы, игры, сериалы, книги и музыка за 2013 и 2014 годы через торрент бесплатно. Скачивайте фильмы в хорошем качестве, игры для пк, xbox, playstation без регистрации. У нас вы найдете новые Зарубежные сериалы и Русские сериалы 2013, 2014, 2015 годов. Оставайтесь с нами, качайте любимые фильмы, игры, сериалы, книги и музыку.