img image001 image001 image001 image001 image001 image001 image001 image001 image001 image001 image001 image001 image001 image001 image001

Planets Sun Sun Sun
Статистика раздачи
Автор: Снежана | Размер: 399.57 МБ | Добавлен: 24 июл 2013
Раздают: 8    Качают: 4
Скачать торрент
Скачать торрент
Описание торрента

СообщениеДобавлено: 24 июл 2013 

#77
Страна: СССР
Год выпуска: 1961
Студия: Мосфильм

Жанр: комедия
Продолжительность: 00:10:04 + 00:18:12

Перевод: не требуется
Оригинальная аудиодорожка: русский
Cубтитры: нет

Режиссер: Леонид Гайдай

В ролях: Евгений Моргунов, Юрий Никулин, Георгий Вицин...

Описание:
Пес Барбос и необычный кросс:
Что есть главное средство для поддержания мужской дружбы и просто для увлекательного времяпрепровождения? Правильно, это рыбалка. Трус, Балбес и Бывалый решили испытать эту радость жизни на себе, но на свою беду взяли они с собой пса Барбоса…
Самогонщики:
Трус, Балбес и Бывалый решают поставить на широкую ногу изготовление самогона — и снова фиаско…






Исходник: DVD5 R5
Тип релиза: DVDRip-AVC
Контейнер: MKV

Видео: 720x550@768x550 (1,374:1), 25 fps, H264 ~ 1526 kbps avg, 0.156 bit/pixel
Видео: 720x556@768x556 (1,374:1), 25 fps, H264 ~ 1526 kbps avg, 0.152 bit/pixel
Аудио: 48 kHz, AC3, 6 ch, 448.00 kbps

Раздача от:
Общее
Полное имя : Pes.Barbos.i.neobychnyj.kross_Samogonwiki.1961.DVDRip-AVC_[Youtracker]_by_AVP Studio.mkv
Формат : Matroska
Версия формата : Version 2
Размер файла : 257 Мбайт
Продолжительность : 18 м.
Общий поток : 1976 Кбит/сек
Дата кодирования : UTC 2012-12-14 13:05:47
Программа кодирования : mkvmerge v5.0.1 ('Es ist Sommer') built on Nov 6 2011 16:23:40
Библиотека кодирования : libebml v1.2.2 + libmatroska v1.3.0

Видео
Идентификатор : 1
Формат : AVC
Формат/Информация : Advanced Video Codec
Профиль формата : High@L4.1
Параметр CABAC формата : Да
Параметр ReFrames формата : 11 кадров
Идентификатор кодека : V_MPEG4/ISO/AVC
Продолжительность : 18 м.
Битрейт : 1526 Кбит/сек
Ширина : 720 пикселей
Высота : 556 пикселей
Соотношение сторон : 1,374
Частота кадров : 25,000 кадров/сек
Цветовое пространство : YUV
Субдискретизация насыщенности : 4:2:0
Битовая глубина : 8 бит
Тип развёртки : Прогрессивная
Бит/(Пиксели*Кадры) : 0.152
Размер потока : 194 Мбайт (75%)
Библиотека кодирования : x264 core 119 r2106 07efeb4
Настройки программы : cabac=1 / ref=11 / deblock=1:-2:-1 / analyse=0x3:0x113 / me=umh / subme=9 / psy=1 / psy_rd=1.00:0.20 / mixed_ref=1 / me_range=32 / chroma_me=1 / trellis=1 / 8x8dct=1 / cqm=0 / deadzone=21,11 / fast_pskip=0 / chroma_qp_offset=-3 / threads=3 / sliced_threads=0 / nr=0 / decimate=0 / interlaced=0 / bluray_compat=0 / constrained_intra=0 / bframes=8 / b_pyramid=2 / b_adapt=2 / b_bias=0 / direct=3 / weightb=1 / open_gop=0 / weightp=2 / keyint=250 / keyint_min=25 / scenecut=40 / intra_refresh=0 / rc_lookahead=60 / rc=2pass / mbtree=1 / bitrate=1526 / ratetol=1.0 / qcomp=0.60 / qpmin=0 / qpmax=69 / qpstep=4 / cplxblur=20.0 / qblur=0.5 / ip_ratio=1.40 / aq=1:1.00
Default : Да
Forced : Нет

Аудио
Идентификатор : 2
Формат : AC-3
Формат/Информация : Audio Coding 3
Расширение режима : CM (complete main)
Идентификатор кодека : A_AC3
Продолжительность : 18 м.
Вид битрейта : Постоянный
Битрейт : 448 Кбит/сек
Каналы : 6 каналов
Расположение каналов : Front: L C R, Side: L R, LFE
Частота : 48,0 КГц
Битовая глубина : 16 бит
Метод сжатия : С потерями
Размер потока : 58,3 Мбайт (23%)
Default : Да
Forced : Нет





   Похожие торренты   Торрент   Размер 
В этой теме нет новых непрочитанных сообщений. Пес Барбос и необычный кросс. Самогонщики (1961) DVDRip от Youtracker

64 | 7

460.89 МБ

В этой теме нет новых непрочитанных сообщений. Самогонщики / Пес Барбос и необычный кросс (1961) BDRip 720p от Youtracker

86 | 12

1.22 ГБ

В этой теме нет новых непрочитанных сообщений. Сборник фильмов - Самогонщики; Пес Барбос и необычный кросс; Сто грамм для храбрости (1961-1976) DVDRip

643 | 92

1.46 ГБ

В этой теме нет новых непрочитанных сообщений. Пес Барбос и необычный кросс, Самогонщики, Сто грамм для храбрости (1961) DVD5

57 | 20

3.97 ГБ

В этой теме нет новых непрочитанных сообщений. Пес Барбос и необычный кросс, Самогонщики, Сто грамм для храбрости (1961-1976) Blu-Ray

8 | 4

22.85 ГБ

В этой теме нет новых непрочитанных сообщений. Самогонщики; Пес Барбос и необычный кросс; Сто грамм для храбрости (1961-1976) BDRip от R.G. 25 Кадр

439 | 30

1.45 ГБ

В этой теме нет новых непрочитанных сообщений. Пес Барбос и необычный кросс / Самогонщики / Сто грамм для храбрости (1961-1976) BDRip-AVC от MediaClub

86 | 13

2.36 ГБ




Вы не можете начинать темы
Вы не можете отвечать на сообщения
Вы не можете редактировать свои сообщения
Вы не можете удалять свои сообщения
Вы не можете добавлять вложения

Перейти:  
Для Мосгорсуда, Роскомнадзора и рекламодателей: mosgorsud-torrent[собачка]yandex.ru
 Вход
ppkBB3cker v.2 © 2008-2014 @ PPK
[ Time : 0.030s | 14 Queries | GZIP : Off ]

Торрент трекер RUTOR.IN, Не можете зайти на rutor.org? Какой новый адрес рутор? Какое зеркало рутор? Не работает rutor.org и зеркала? Тогда наш торрент специально для вас. Rutor.in неофициальное зеркало rutor. В случае если у Вас заблокирован rutor или вдруг Вы не можете на него зайти, то Вы без труда сможете скачать бесплатно и без рекламы последние новинки кино, игр, сериалов и прочего у нас, на Rutor.in. Не нужно использовать прокси, чтобы зайти на рутор, достаточно воспользоваться нашим ресурсом. Все новые фильмы, игры, сериалы, книги и музыка за 2013 и 2014 годы через торрент бесплатно. Скачивайте фильмы в хорошем качестве, игры для пк, xbox, playstation без регистрации. У нас вы найдете новые Зарубежные сериалы и Русские сериалы 2013, 2014, 2015 годов. Оставайтесь с нами, качайте любимые фильмы, игры, сериалы, книги и музыку.