img image001 image001 image001 image001 image001 image001 image001 image001 image001 image001 image001 image001 image001 image001 image001

Planets Sun Sun Sun
Статистика раздачи
Автор: Снежана | Размер: 9.72 ГБ | Добавлен: 24 июл 2013
Раздают: 127    Качают: 5
Скачать торрент
Скачать торрент
Описание торрента

СообщениеДобавлено: 24 июл 2013 

#77

Название: День радио
Год выпуска: 2008
Страна: Россия
Жанр: Комедия
Продолжительность: 01:43:01
Режиссер: Дмитрий Дьяченко

В ролях: Леонид Барац, Александр Демидов, Камиль Ларин, Ростислав Хаит, Михаил Козырев, Нонна Гришаева, Дмитрий Марьянов, Николай Фоменко, Максим Виторган, Анна Касаткина-Барац, Михаил Полицеймако, Анастасия Сапожникова, Федор Добронравов, Алексей Хардиков, Михаил Бескоровайный, Константин Чепурин, Эммануил Виторган, Георгий Мартиросян, Сергей Беляев, Владимир Шахрин, Владимир Бегунов, Алексей Кортнев, Илья Лагутенко, Олег Скрипка, Диана Арбенина, Максим Покровский, Сергей Мазаев, Сергей Бабкин, Игорь Гоцманов, Амалия Мордвинова

Описание: Один день из жизни модной московской радиостанции. Не самый лучший день – рушатся все планы, все валится из рук… И именно в тот момент, когда на станции в прямом эфире вот-вот должен начаться «живой» марафон, а популярные российские рок-группы придут в эфир, чтобы поддержать… впрочем, это уже неважно, потому что тема марафона перехвачена конкурентами и активно обсуждается в эфире «вражеской» радиостанции. Но марафон отменять нельзя! Рабочий день обещает стать последним для всего творческого состава, если срочно не найдется новая тема. А тем временем из Находки вышел маленький катер с лучшими представителями Благовещенского областного цирка – медведь, обезьяна, два пуделя, петух, козел, кабан, которые плывут на гастроли в Японию. И если бы кто-то из команды катера не слил налево полбака солярки, а еще кто-то – еще полбака, то они бы, возможно, даже и доплыли бы. А так… …а так дрейфующий в море жалкий кораблик в течение нескольких минут, благодаря креативным умам сотрудников радиостанции становится гигантским научным лайнером, на борту которого находится сотня уникальных животных, многие из которых сохранились чуть ли не в единственном экземпляре. И этот лайнер терпит чудовищное бедствие в водах Японского моря – ну и, конечно, в прямом эфире «Как Бы Радио». Мир на грани зоокатастрофы!!! Свои комментарии дает сама Бриджит Бордо, а в борьбу за спасение генофонда включаются МЧС и МинОбороны. И, разумеется, лучшие представители отечественной рок-музыки…





Качество: BDRip 1080p
Формат: Matroska
Видео кодек: x264
Аудио кодек: DTS
Видео: MPEG-4 AVC, 12000 Кбит/с, 1920x1036
Аудио: DTS, 6 ch, 1510 Кбит/с

Полное имя : Den.radio.2008.x264.BDRip(1080p)-FILMRUS.mkv
Формат : Matroska
Версия формата : Version 2
Размер файла : 9,72 Гбайт
Продолжительность : 1 ч. 43 м.
Общий поток : 13,5 Мбит/сек
Название фильма : = FILMRUS = rip by Painter
Дата кодирования : UTC 2012-12-12 21:11:36
Программа кодирования : mkvmerge v5.4.0 ('Piper') built on Mar 10 2012 13:34:39
Библиотека кодирования : libebml v1.2.3 + libmatroska v1.3.0

Видео
Идентификатор : 1
Формат : AVC
Формат/Информация : Advanced Video Codec
Профиль формата : High@L4.1
Параметр CABAC формата : Да
Параметр ReFrames формата : 4 кадра
Идентификатор кодека : V_MPEG4/ISO/AVC
Продолжительность : 1 ч. 43 м.
Битрейт : 12,0 Мбит/сек
Ширина : 1920 пикселей
Высота : 1036 пикселей
Соотношение сторон : 1,85:1
Режим частоты кадров : Постоянный
Частота кадров : 23,976 кадра/сек
Цветовое пространство : YUV
Субдискретизация насыщенности : 4:2:0
Битовая глубина : 8 бит
Тип развёртки : Прогрессивная
Бит/(Пиксели*Кадры) : 0.252
Размер потока : 8,44 Гбайт (87%)
Библиотека кодирования : x264 core 125 r2208 d9d2288
Настройки программы : cabac=1 / ref=4 / deblock=1:-3:-3 / analyse=0x3:0x133 / me=umh / subme=11 / psy=1 / psy_rd=1.00:0.05 / mixed_ref=1 / me_range=32 / chroma_me=1 / trellis=2 / 8x8dct=1 / cqm=0 / deadzone=21,11 / fast_pskip=0 / chroma_qp_offset=-3 / threads=6 / lookahead_threads=1 / sliced_threads=0 / nr=0 / decimate=0 / interlaced=0 / bluray_compat=0 / constrained_intra=0 / bframes=7 / b_pyramid=2 / b_adapt=2 / b_bias=0 / direct=3 / weightb=1 / open_gop=0 / weightp=2 / keyint=250 / keyint_min=23 / scenecut=40 / intra_refresh=0 / rc=2pass / mbtree=0 / bitrate=12000 / ratetol=1.0 / qcomp=0.60 / qpmin=10 / qpmax=51 / qpstep=4 / cplxblur=20.0 / qblur=0.5 / ip_ratio=1.40 / pb_ratio=1.30 / aq=1:0.90
Язык : Russian
Default : Да
Forced : Нет

Аудио
Идентификатор : 2
Формат : DTS
Формат/Информация : Digital Theater Systems
Режим : 16
Параметр Endianness формата : Big
Идентификатор кодека : A_DTS
Продолжительность : 1 ч. 43 м.
Вид битрейта : Постоянный
Битрейт : 1509 Кбит/сек
Каналы : 6 каналов
Расположение каналов : Front: L C R, Side: L R, LFE
Частота : 48,0 КГц
Битовая глубина : 16 бит
Метод сжатия : С потерями
Размер потока : 1,09 Гбайт (11%)
Язык : Russian
Default : Да
Forced : Нет

Меню
00:00:00.000 : :Chapter 01
00:07:38.499 : :Chapter 02
00:15:38.854 : :Chapter 03
00:24:23.336 : :Chapter 04
00:31:54.203 : :Chapter 05
00:41:07.506 : :Chapter 06
00:46:44.301 : :Chapter 07
00:55:42.839 : :Chapter 08
01:04:16.269 : :Chapter 09
01:13:31.490 : :Chapter 10
01:20:09.763 : :Chapter 11
01:29:44.337 : :Chapter 12



   Похожие торренты   Торрент   Размер 
В этой теме нет новых непрочитанных сообщений. День радио (2008) BDRip 1080p от BT-Club

298 | 13

8.02 ГБ

В этой теме нет новых непрочитанных сообщений. День радио (2008) BDRip-AVC от HQ-ViDEO

603 | 27

2.18 ГБ

В этой теме нет новых непрочитанных сообщений. День радио (2008) BDRip от HQ-ViDEO

1669 | 49

1.46 ГБ

В этой теме нет новых непрочитанных сообщений. День радио (2008) BDRip от HELLYWOOD

173 | 6

1.45 ГБ

В этой теме нет новых непрочитанных сообщений. День радио (2008) BDRip от HQCLUB

50 | 8

1.8 ГБ

В этой теме нет новых непрочитанных сообщений. День радио (2008) BDRip 720p от HDCLUB

372 | 15

4.31 ГБ

В этой теме нет новых непрочитанных сообщений. Дни радио / Эпоха радио / Radio Days (1987) BDRip 720p от Brazzass

22 | 8

6.89 ГБ




Вы не можете начинать темы
Вы не можете отвечать на сообщения
Вы не можете редактировать свои сообщения
Вы не можете удалять свои сообщения
Вы не можете добавлять вложения

Перейти:  
Для Мосгорсуда, Роскомнадзора и рекламодателей: mosgorsud-torrent[собачка]yandex.ru
 Вход
ppkBB3cker v.2 © 2008-2014 @ PPK
[ Time : 0.052s | 14 Queries | GZIP : Off ]

Торрент трекер RUTOR.IN, Не можете зайти на rutor.org? Какой новый адрес рутор? Какое зеркало рутор? Не работает rutor.org и зеркала? Тогда наш торрент специально для вас. Rutor.in неофициальное зеркало rutor. В случае если у Вас заблокирован rutor или вдруг Вы не можете на него зайти, то Вы без труда сможете скачать бесплатно и без рекламы последние новинки кино, игр, сериалов и прочего у нас, на Rutor.in. Не нужно использовать прокси, чтобы зайти на рутор, достаточно воспользоваться нашим ресурсом. Все новые фильмы, игры, сериалы, книги и музыка за 2013 и 2014 годы через торрент бесплатно. Скачивайте фильмы в хорошем качестве, игры для пк, xbox, playstation без регистрации. У нас вы найдете новые Зарубежные сериалы и Русские сериалы 2013, 2014, 2015 годов. Оставайтесь с нами, качайте любимые фильмы, игры, сериалы, книги и музыку.