img image001 image001 image001 image001 image001 image001 image001 image001 image001 image001 image001 image001 image001 image001 image001

Planets Sun Sun Sun
Статистика раздачи
Автор: Снежана | Размер: 7.95 ГБ | Добавлен: 24 июл 2013
Раздают: 6    Качают: 1
Скачать торрент
Скачать торрент
Описание торрента

СообщениеДобавлено: 24 июл 2013 

Слуга государев (2007) BDRip 1080p



Информация о фильме
Название: Слуга государев
Оригинальное название: Оригинальное название (для иностранных фильмов)
Год выхода: 2007
Жанр: боевик, приключения, военный, история
Режиссер: Олег Рясков

В ролях: Ольга Арнтгольц, Александр Бухаров, Алексей Чадов, Николай Чиндяйкин, Владислав Демченко, Ксения Князева, Валерий Маликов, Дмитрий Миллер, Елена Плаксина, Андрей Рыклин

О фильме: 1709 год. Европу раздирают междоусобные войны. Францией все еще правит стареющий Людовик XIV, а подвиги мушкетеров еще не забыты. В Версале два французских дворянина, поссорившись из-за карточной игры, нарушают существующий запрет на дуэли и оказываются между тюрьмой и плахой палача. Милостью короля казнь заменена ссылкой «на пользу государства».

Один из них должен отправиться на службу ко двору российского царя Петра Первого, другой — ко двору шведского короля Карла XII, чтобы шпионить в пользу Франции. Россия и Швеция находятся в состоянии войны, и герои должны прибыть к местам назначения как раз накануне Полтавской битвы. Однако оказывается, что ссылка — всего лишь предлог и на самом деле им уготовано место в первых рядах сражающихся друг против друга армий. Чтобы спасти любимого, подруга одного из героев решается на отчаянный шаг…

В России тем временем ползут слухи о мистическом черном всаднике, якобы причастном к исчезновению людей… Проведенное расследование подтверждает, что загадочные появления мистического всадника — правда. Все герои встретятся при самых неожиданных обстоятельствах, пережив немало опасных приключений. Но чем закончится эта встреча? Ведь они до сих пор считают дело чести неоконченным…



Страна: Россия
Продолжительность: 01:56:56
Перевод: Профессиональный (Многоголосый закадровый), Оригинал (Multilanguage)

Файл
Кодек: h.264
Качество: BDRip 1080p
Видео: 1920x816 (2,35:1), 25,000 fps, 8532 kbps, 0.218 bit/pixel
Аудио #1: 48 kHz, DTS 5.1, 755.00 kbps (Русский)
Аудио #2: 48 kHz, AC3 5.1, 448.00 kbps (Оригинал)
Субтитры: Русские, Немецкие

&

Общее
Уникальный идентификатор : 200002391491474521812205752847108265049 (0x96770F3992C45863A20CE4D1AA39D459)
Полное имя : D:Sluga Gosudarev.2007.BDRip.1080p.mkv
Формат : Matroska
Версия формата : Version 4 / Version 2
Размер файла : 7,95 Гбайт
Продолжительность : 1 ч. 56 м.
Общий поток : 9734 Кбит/сек
Название фильма : Слуга государев (2007) BDRip 1080p rip by Rulya74
Дата кодирования : UTC 2010-02-22 21:41:31
Программа кодирования : mkvmerge v5.9.0 ('On The Loose') built on Dec 9 2012 15:37:01
Библиотека кодирования : libebml v1.3.0 + libmatroska v1.4.0

Видео
Идентификатор : 1
Формат : AVC
Формат/Информация : Advanced Video Codec
Профиль формата : High@L4.1
Параметр CABAC формата : Да
Параметр ReFrames формата : 5 кадров
Идентификатор кодека : V_MPEG4/ISO/AVC
Продолжительность : 1 ч. 56 м.
Битрейт : 8532 Кбит/сек
Ширина : 1920 пикселей
Высота : 816 пикселей
Соотношение сторон : 2,35:1
Частота кадров : 25,000 кадров/сек
Цветовое пространство : YUV
Субдискретизация насыщенности : 4:2:0
Битовая глубина : 8 бит
Тип развёртки : Прогрессивная
Бит/(Пиксели*Кадры) : 0.218
Размер потока : 6,81 Гбайт (86%)
Библиотека кодирования : x264 core 125 r2208 d9d2288
Настройки программы : cabac=1 / ref=5 / deblock=1:-1:-1 / analyse=0x3:0x133 / me=umh / subme=9 / psy=1 / psy_rd=1.07:0.30 / mixed_ref=1 / me_range=32 / chroma_me=1 / trellis=2 / 8x8dct=1 / cqm=0 / deadzone=21,11 / fast_pskip=0 / chroma_qp_offset=-4 / threads=4 / lookahead_threads=2 / sliced_threads=0 / nr=0 / decimate=1 / interlaced=0 / bluray_compat=0 / constrained_intra=0 / bframes=4 / b_pyramid=2 / b_adapt=2 / b_bias=0 / direct=3 / weightb=1 / open_gop=0 / weightp=2 / keyint=250 / keyint_min=25 / scenecut=40 / intra_refresh=0 / rc_lookahead=40 / rc=2pass / mbtree=1 / bitrate=8532 / ratetol=1.0 / qcomp=0.60 / qpmin=10 / qpmax=51 / qpstep=4 / cplxblur=20.0 / qblur=0.5 / ip_ratio=1.40 / aq=1:1.00
Default : Да
Forced : Нет

Аудио #1
Идентификатор : 2
Формат : DTS
Формат/Информация : Digital Theater Systems
Идентификатор кодека : A_DTS
Продолжительность : 1 ч. 56 м.
Вид битрейта : Постоянный
Битрейт : 755 Кбит/сек
Каналы : 6 каналов
Расположение каналов : Front: L C R, Side: L R, LFE
Частота : 48,0 КГц
Битовая глубина : 24 бит
Метод сжатия : С потерями
Размер потока : 631 Мбайт (8%)
Заголовок : Многоголосый закадровый (профессиональный)
Язык : Russian
Default : Да
Forced : Нет

Аудио #2
Идентификатор : 3
Формат : AC-3
Формат/Информация : Audio Coding 3
Расширение режима : CM (complete main)
Идентификатор кодека : A_AC3
Продолжительность : 1 ч. 56 м.
Вид битрейта : Постоянный
Битрейт : 448 Кбит/сек
Каналы : 6 каналов
Расположение каналов : Front: L C R, Side: L R, LFE
Частота : 48,0 КГц
Битовая глубина : 16 бит
Метод сжатия : С потерями
Размер потока : 375 Мбайт (5%)
Заголовок : Multilanguage
Default : Нет
Forced : Нет

Текст #1
Идентификатор : 4
Формат : UTF-8
Идентификатор кодека : S_TEXT/UTF8
Идентификатор кодека/Информация : UTF-8 Plain Text
Язык : Russian
Default : Да
Forced : Нет

Текст #2
Идентификатор : 5
Формат : UTF-8
Идентификатор кодека : S_TEXT/UTF8
Идентификатор кодека/Информация : UTF-8 Plain Text
Язык : German
Default : Нет
Forced : Нет





   Похожие торренты   Торрент   Размер 
В этой теме нет новых непрочитанных сообщений. Слуга государев (2007) BDRip от Rulya74

18 | 3

2.19 ГБ

В этой теме нет новых непрочитанных сообщений. Слуга государев (2007) BDRip-AVC от 0ptimus

18 | 2

2.95 ГБ

В этой теме нет новых непрочитанных сообщений. Слуга государев (2007) BDRip 720p

7 | 3

4.99 ГБ

В этой теме нет новых непрочитанных сообщений. Слуга государев (2007) BDRip от HQCLUB | Лицензия

104 | 8

2.18 ГБ

В этой теме нет новых непрочитанных сообщений. Слуга государев (2007) BDRip 720p от leonardo 59

94 | 5

3.26 ГБ

В этой теме нет новых непрочитанных сообщений. Слуга государев (2007) DVD5

6 | 3

4.35 ГБ

В этой теме нет новых непрочитанных сообщений. Слуга государев (2007) DVDRip

47 | 7

1.37 ГБ




Вы не можете начинать темы
Вы не можете отвечать на сообщения
Вы не можете редактировать свои сообщения
Вы не можете удалять свои сообщения
Вы не можете добавлять вложения

Перейти:  
Для Мосгорсуда, Роскомнадзора и рекламодателей: mosgorsud-torrent[собачка]yandex.ru
 Вход
ppkBB3cker v.2 © 2008-2014 @ PPK
[ Time : 0.038s | 14 Queries | GZIP : Off ]

Торрент трекер RUTOR.IN, Не можете зайти на rutor.org? Какой новый адрес рутор? Какое зеркало рутор? Не работает rutor.org и зеркала? Тогда наш торрент специально для вас. Rutor.in неофициальное зеркало rutor. В случае если у Вас заблокирован rutor или вдруг Вы не можете на него зайти, то Вы без труда сможете скачать бесплатно и без рекламы последние новинки кино, игр, сериалов и прочего у нас, на Rutor.in. Не нужно использовать прокси, чтобы зайти на рутор, достаточно воспользоваться нашим ресурсом. Все новые фильмы, игры, сериалы, книги и музыка за 2013 и 2014 годы через торрент бесплатно. Скачивайте фильмы в хорошем качестве, игры для пк, xbox, playstation без регистрации. У нас вы найдете новые Зарубежные сериалы и Русские сериалы 2013, 2014, 2015 годов. Оставайтесь с нами, качайте любимые фильмы, игры, сериалы, книги и музыку.