img image001 image001 image001 image001 image001 image001 image001 image001 image001 image001 image001 image001 image001 image001 image001

Planets Sun Sun Sun
Статистика раздачи
Автор: Снежана | Размер: 4.99 ГБ | Добавлен: 24 июл 2013
Раздают: 7    Качают: 3
Скачать торрент
Скачать торрент
Описание торрента

СообщениеДобавлено: 24 июл 2013 

#77

Информация о фильме
Название: Слуга государев
Оригинальное название: Sluga Gosudarev
Год выхода: 2007
Жанр: Боевик, приключения, военный, история
Режиссер: Олег Рясков
В ролях: Ольга Арнтгольц, Александр Бухаров, Алексей Чадов, Николай Чиндяйкин, Владислав Демченко, Ксения Князева, Валерий Маликов, Дмитрий Миллер, Елена Плаксина, Андрей Рыклин, Дарья Семенова, Иван Шибанов, Дмитрий Шиляев, Андрей Сухов, Родион Юрин, Александр Стариков, Андрей Чубченко, Сергей Жолобов, Мария Горбань, Борис Тенин, Дарья Носик, Александр Гундарев, Елена Антипова, Дмитрий Ратомский, Андрей Балякин, Александр Самойлов, Эдуард Флёров, Александр Пятков, Александра Живова, Наталья Лесниковская, Алексей Агрызков, Екатерина Крупенина, Мария Кожевникова, Юрий Маслак, Алексей Фурсенко, Ксения Виват, Георгий Тесля-Герасимов, Геннадий Христенко, Дмитрий Мазуров, Олег Леушин

О фильме:
Слуга государев - российский фильм плаща и шпаги, к которому как нельзя лучше подойдет слоган "Во имя чести и любви!". Достаточно неплохая отечественная альтернатива западным историко-приключенческим фильмам. Действие происходит в начале 18 века. Французский король Людовик XIV ссылает двух дворян, подравшихся на дуэли, ко дворам русского царя Петра I и шведского короля Карла XII. Идет Северная война между двумя государствами и близится решающее сражение - Полтавская битва, участниками которой с разных сторон и становятся оба француза. В фильме, безусловно, есть много минусов, но на них невольно закрываешь глаза и прощаешь режиссеров и продюсеров, когда становится окончательно понятно, что они снимали в первую очередь Российский фильм про Россию. Первый значимый исторический фильм со времен «Сибирского цирюльника».

Официальный сайт

Страна: Россия
Студия: Beta Film TV
Продолжительность: 01:56:56
Перевод: Профессиональный (многоголосый закадровый) R5 + Multilanguage

Файл
Кодек: x264
Качество: BDRip (720p)
Видео: 1280x550 at 25 fps, High@L4.1, 4337 kbps
Звук:
Русский (DTS, 6 ch, 768 Кбит/с), (АС3, 6 ch, 448 Кбит/с)
Многоязычный (AC3, 6 ch, 448 Кбит/с) [все говорят на оригинальных языках персонажей]
Субтитры: Русские (на иностранную речь многоязычной дорожки)

General
Unique ID : 173006228183945421607177512589153334029 (0x8227C99C628CDAC282274A898FE0F30D)
Complete name : Sluga.Gosudarev.2007.720p.BDRip.x264.mkv
Format : Matroska
Format version : Version 4 / Version 2
File size : 4.99 GiB
Duration : 1h 56mn
Overall bit rate : 6 109 Kbps
Movie name : Sluga.Gosudarev.2007.720p.BDRip.x264-DTS.AC3
Encoded date : UTC 2010-02-22 21:41:31
Writing application : mkvmerge v5.9.0 ('On The Loose') built on Dec 9 2012 15:37:01
Writing library : libebml v1.3.0 + libmatroska v1.4.0

Video
ID : 1
Format : AVC
Format/Info : Advanced Video Codec
Format profile : High@L4.1
Format settings, CABAC : Yes
Format settings, ReFrames : 11 frames
Codec ID : V_MPEG4/ISO/AVC
Duration : 1h 56mn
Bit rate : 4 337 Kbps
Width : 1 280 pixels
Height : 550 pixels
Display aspect ratio : 2.35:1
Frame rate : 25.000 fps
Color space : YUV
Chroma subsampling : 4:2:0
Bit depth : 8 bits
Scan type : Progressive
Bits/(Pixel*Frame) : 0.246
Stream size : 3.54 GiB (71%)
Title : Sluga Gosudarev (2007)
Writing library : x264 core 128 r2216kMod 198a7ea
Encoding settings : cabac=1 / ref=11 / deblock=1:-3:-3 / analyse=0x3:0x113 / me=umh / subme=10 / psy=1 / fade_compensate=0.00 / psy_rd=1.00:0.00 / mixed_ref=1 / me_range=32 / chroma_me=1 / trellis=2 / 8x8dct=1 / cqm=0 / deadzone=21,11 / fast_pskip=1 / chroma_qp_offset=-2 / threads=18 / lookahead_threads=3 / sliced_threads=0 / nr=0 / decimate=1 / interlaced=0 / bluray_compat=0 / constrained_intra=0 / bframes=8 / b_pyramid=2 / b_adapt=2 / b_bias=0 / direct=1 / weightb=1 / open_gop=0 / weightp=2 / keyint=250 / keyint_min=25 / scenecut=40 / intra_refresh=0 / rc_lookahead=40 / rc=crf / mbtree=0 / crf=16.0000 / qcomp=0.60 / qpmin=0 / qpmax=69 / qpstep=4 / vbv_maxrate=50000 / vbv_bufsize=62500 / crf_max=0.0 / nal_hrd=none / ip_ratio=1.40 / pb_ratio=1.30 / aq=1:0.80
Language : Russian
Default : Yes
Forced : No
Matrix coefficients : BT.709-5, BT.1361, IEC 61966-2-4 709, SMPTE RP177

Audio #1
ID : 2
Format : DTS
Format/Info : Digital Theater Systems
Codec ID : A_DTS
Duration : 1h 56mn
Bit rate mode : Constant
Bit rate : 755 Kbps
Channel(s) : 6 channels
Channel positions : Front: L C R, Side: L R, LFE
Sampling rate : 48.0 KHz
Bit depth : 24 bits
Compression mode : Lossy
Stream size : 631 MiB (12%)
Title : RUS (R5) - DTS 5.1 48KHz @ 768 kbps (24-bit)
Language : Russian
Default : Yes
Forced : No

Audio #2
ID : 3
Format : AC-3
Format/Info : Audio Coding 3
Mode extension : CM (complete main)
Codec ID : A_AC3
Duration : 1h 56mn
Bit rate mode : Constant
Bit rate : 448 Kbps
Channel(s) : 6 channels
Channel positions : Front: L C R, Side: L R, LFE
Sampling rate : 48.0 KHz
Bit depth : 16 bits
Compression mode : Lossy
Stream size : 375 MiB (7%)
Title : RUS (R5) - AC3 5.1 48KHz @ 448 kbps (16-bit)
Language : Russian
Default : No
Forced : No

Audio #3
ID : 4
Format : AC-3
Format/Info : Audio Coding 3
Mode extension : CM (complete main)
Codec ID : A_AC3
Duration : 1h 56mn
Bit rate mode : Constant
Bit rate : 448 Kbps
Channel(s) : 6 channels
Channel positions : Front: L C R, Side: L R, LFE
Sampling rate : 48.0 KHz
Bit depth : 16 bits
Compression mode : Lossy
Stream size : 375 MiB (7%)
Title : Multilanguage - AC3 5.1 48KHz @ 448 kbps (16-bit)
Default : No
Forced : No

Text
ID : 5
Format : UTF-8
Codec ID : S_TEXT/UTF8
Codec ID/Info : UTF-8 Plain Text
Title : RUS for Multilanguage
Language : Russian
Default : No
Forced : No

Menu
00:00:00.000 : :Chapter 01
00:10:00.000 : :Chapter 02
00:20:00.000 : :Chapter 03
00:30:00.000 : :Chapter 04
00:40:00.000 : :Chapter 05
00:50:00.000 : :Chapter 06
01:00:00.000 : :Chapter 07
01:10:00.000 : :Chapter 08
01:20:00.000 : :Chapter 09
01:30:00.000 : :Chapter 10
01:40:00.000 : :Chapter 11
01:50:00.000 : :Chapter 12
01:56:56.200 : :Chapter 13


Релиз от: THANKS TO A FRIEND !



   Похожие торренты   Торрент   Размер 
В этой теме нет новых непрочитанных сообщений. Слуга государев (2007) BDRip 720p от leonardo 59

94 | 5

3.26 ГБ

В этой теме нет новых непрочитанных сообщений. Слуга государев (2007) BDRip-AVC от 0ptimus

18 | 2

2.95 ГБ

В этой теме нет новых непрочитанных сообщений. Слуга государев (2007) BDRip от Rulya74

18 | 3

2.19 ГБ

В этой теме нет новых непрочитанных сообщений. Слуга государев (2007) BDRip 1080p от Rulya74

6 | 1

7.95 ГБ

В этой теме нет новых непрочитанных сообщений. Слуга государев (2007) BDRip от HQCLUB | Лицензия

104 | 8

2.18 ГБ

В этой теме нет новых непрочитанных сообщений. Слуга государев (2007) DVD5

6 | 3

4.35 ГБ

В этой теме нет новых непрочитанных сообщений. Слуга государев (2007) DVDRip

47 | 7

1.37 ГБ




Вы не можете начинать темы
Вы не можете отвечать на сообщения
Вы не можете редактировать свои сообщения
Вы не можете удалять свои сообщения
Вы не можете добавлять вложения

Перейти:  
Для Мосгорсуда, Роскомнадзора и рекламодателей: mosgorsud-torrent[собачка]yandex.ru
 Вход
ppkBB3cker v.2 © 2008-2014 @ PPK
[ Time : 0.058s | 15 Queries | GZIP : Off ]

Торрент трекер RUTOR.IN, Не можете зайти на rutor.org? Какой новый адрес рутор? Какое зеркало рутор? Не работает rutor.org и зеркала? Тогда наш торрент специально для вас. Rutor.in неофициальное зеркало rutor. В случае если у Вас заблокирован rutor или вдруг Вы не можете на него зайти, то Вы без труда сможете скачать бесплатно и без рекламы последние новинки кино, игр, сериалов и прочего у нас, на Rutor.in. Не нужно использовать прокси, чтобы зайти на рутор, достаточно воспользоваться нашим ресурсом. Все новые фильмы, игры, сериалы, книги и музыка за 2013 и 2014 годы через торрент бесплатно. Скачивайте фильмы в хорошем качестве, игры для пк, xbox, playstation без регистрации. У нас вы найдете новые Зарубежные сериалы и Русские сериалы 2013, 2014, 2015 годов. Оставайтесь с нами, качайте любимые фильмы, игры, сериалы, книги и музыку.