img image001 image001 image001 image001 image001 image001 image001 image001 image001 image001 image001 image001 image001 image001 image001

Planets Sun Sun Sun
Статистика раздачи
Автор: Снежана | Размер: 747.57 МБ | Добавлен: 24 июл 2013
Раздают: 17    Качают: 2
Скачать торрент
Скачать торрент
Описание торрента

СообщениеДобавлено: 24 июл 2013 

#77
Страна: СССР
Год выпуска: 1967
Студия: Студия Горького

Жанр: военный, боевик
Продолжительность: 01:31:18

Перевод: не требуется
Оригинальная аудиодорожка: русский
Cубтитры: нет

Режиссер: Иван Лукинский

В ролях: Геннадий Бортников, Сергей Яковлев, Николай Скоробогатов, Имеда Кахиани, Александр Новиков, Олев Эскола, Игорь Класс, Хейно Мандри, Владимир Протасенко, Рудольф Панков, Владимир Костин, Сергей Голованов, Ева Мурниеце, Людмила Гурченко...

Описание:
Вторая мировая война. В одной из немецких разведшкол готовятся диверсионные группы из русских военнопленных для заброски в СССР.
Среди них — Николай Вережников, который, не будучи профессиональным разведчиком, сумел навязать собственную игру и помешать планам врага…





Исходник: DVD5 R5
Тип релиза: DVDRip
Контейнер: AVI

Видео: 688x288 (2,40:1), 25 fps, XviD ~ 1007 kbps avg, 0.203 bit/pixel
Аудио: 48 kHz, MP3, 2 ch, 128.00 kbps

Раздача от:
Общее
Полное имя : Vzorvannyj.ad.1967.DVDRip_[Youtracker]_by_AVP Studio.avi
Формат : AVI
Формат/Информация : Audio Video Interleave
Размер файла : 748 Мбайт
Продолжительность : 1 ч. 31 м.
Общий поток : 1145 Кбит/сек
Программа кодирования : VirtualDubMod 1.5.10.3 | www.virtualdub-fr.org || (build 2550/release)
Библиотека кодирования : VirtualDubMod build 2550/release

Видео
Идентификатор : 0
Формат : MPEG-4 Visual
Профиль формата : Advanced Simple@L5
Параметр BVOP формата : 1
Параметр QPel формата : Нет
Параметр GMC формата : Без точки перехода
Параметр матрицы формата : Выборочная
Идентификатор кодека : XVID
Идентификатор кодека/Подсказка : XviD
Продолжительность : 1 ч. 31 м.
Битрейт : 1007 Кбит/сек
Ширина : 688 пикселей
Высота : 288 пикселей
Соотношение сторон : 2,40:1
Частота кадров : 25,000 кадров/сек
Цветовое пространство : YUV
Субдискретизация насыщенности : 4:2:0
Битовая глубина : 8 бит
Тип развёртки : Прогрессивная
Метод сжатия : С потерями
Бит/(Пиксели*Кадры) : 0.203
Размер потока : 658 Мбайт (88%)
Библиотека кодирования : XviD 65

Аудио
Идентификатор : 1
Формат : MPEG Audio
Версия формата : Version 1
Профиль формата : Layer 3
Идентификатор кодека : 55
Идентификатор кодека/Подсказка : MP3
Продолжительность : 1 ч. 31 м.
Вид битрейта : Постоянный
Битрейт : 128 Кбит/сек
Каналы : 2 канала
Частота : 48,0 КГц
Метод сжатия : С потерями
Размер потока : 83,6 Мбайт (11%)
Выравнивание : Соединение по промежуткам
Продолжительность промежутка : 40 мс. (1,00 видеокадр)
Время предзагрузки промежутка : 504 мс.
Библиотека кодирования : L3.99r
Настройки программы : -m s -V 4 -q 2 -lowpass 17 -b 128





   Похожие торренты   Торрент   Размер 
В этой теме нет новых непрочитанных сообщений. Взорванный ад (1967) DVDRip от Youtracker

9 | 3

1.46 ГБ

В этой теме нет новых непрочитанных сообщений. Взорванный ад (1967) DVDRip-AVC от Youtracker

8 | 2

1.46 ГБ

В этой теме нет новых непрочитанных сообщений. Его звали Роберт (1967) DVDRip от Youtracker

0 | 1

746.59 МБ

В этой теме нет новых непрочитанных сообщений. Крепкий орешек (1967) DVDRip-AVC от Youtracker

14 | 6

894.66 МБ

В этой теме нет новых непрочитанных сообщений. Его звали Роберт (1967) DVDRip от Youtracker

16 | 11

1.46 ГБ

В этой теме нет новых непрочитанных сообщений. Его звали Роберт (1967) DVDRip-AVC от Youtracker

28 | 4

1.46 ГБ

В этой теме нет новых непрочитанных сообщений. Оскар / Oscar (1967) DVDRip от Youtracker | D

51 | 3

742.61 МБ




Вы не можете начинать темы
Вы не можете отвечать на сообщения
Вы не можете редактировать свои сообщения
Вы не можете удалять свои сообщения
Вы не можете добавлять вложения

Перейти:  
Для Мосгорсуда, Роскомнадзора и рекламодателей: mosgorsud-torrent[собачка]yandex.ru
 Вход
ppkBB3cker v.2 © 2008-2014 @ PPK
[ Time : 0.246s | 14 Queries | GZIP : Off ]

Торрент трекер RUTOR.IN, Не можете зайти на rutor.org? Какой новый адрес рутор? Какое зеркало рутор? Не работает rutor.org и зеркала? Тогда наш торрент специально для вас. Rutor.in неофициальное зеркало rutor. В случае если у Вас заблокирован rutor или вдруг Вы не можете на него зайти, то Вы без труда сможете скачать бесплатно и без рекламы последние новинки кино, игр, сериалов и прочего у нас, на Rutor.in. Не нужно использовать прокси, чтобы зайти на рутор, достаточно воспользоваться нашим ресурсом. Все новые фильмы, игры, сериалы, книги и музыка за 2013 и 2014 годы через торрент бесплатно. Скачивайте фильмы в хорошем качестве, игры для пк, xbox, playstation без регистрации. У нас вы найдете новые Зарубежные сериалы и Русские сериалы 2013, 2014, 2015 годов. Оставайтесь с нами, качайте любимые фильмы, игры, сериалы, книги и музыку.