img image001 image001 image001 image001 image001 image001 image001 image001 image001 image001 image001 image001 image001 image001 image001

Planets Sun Sun Sun
Статистика раздачи
Автор: Снежана | Размер: 1.46 ГБ | Добавлен: 24 июл 2013
Раздают: 6    Качают: 2
Скачать торрент
Скачать торрент
Описание торрента

СообщениеДобавлено: 24 июл 2013 

«Шесть судеб - развязка одна.»



#77
Страна: Россия
Жанр: драма, криминал
Год выпуска: 2009
Продолжительность: 01:47:20

Перевод: не требуется
Оригинальная аудиодорожка: русский (цензурный)
Cубтитры: нет

Режиссер: Клим Шипенко

В ролях: Михаил Бабичев, Ксения Буравская, Татьяна Васильева, Юлия Гоманюк, Анатолий Лобоцкий, Олег Долин, Ольга Ломоносова, Евгений Пронин, Константин Соловьев, Борис Хвошнянский, Константин Демидов...

Описание: Их шестеро: Андрей, Лекс, Сильвер, Лис, Дин и Дина — молодые, отчаянные, готовые на любой риск. Алиса — хозяйка злачного заведения — предлагает им хорошие деньги. Но «деньги явно не легкие» — честно предупреждает Алиса. Почему они соглашаются? У каждого за плечами свой полный криминальных приключений путь к этому решению. Поначалу не связанные друг с другом герои, волею своих лихих судеб постепенно сближаются, пока не оказываются вместе в Алисином деле. Они не жалеют, что жизнь сложилась именно так. Им нравится свобода на грани фола. И они не ищут прощения — даже перед лицом смерти…






Исходник: DVD9 R5
Тип релиза: DVDRip
Контейнер: AVI

Видео: 720x304 (2.35:1), 25 fps, XviD ~ 1486 kbps avg, 0.272 bit/pixel
Аудио: 48 kHz, АС3 , 6 ch, 448.00 kbps

Раздача от:
Общее
Полное имя : Neproshhennye.2009.O.DVDRip_[Youtracker]_by_avproh.avi
Формат : AVI
Формат/Информация : Audio Video Interleave
Размер файла : 1,46 Гбайт
Продолжительность : 1 ч. 47 м.
Общий поток : 1943 Кбит/сек
Программа кодирования : VirtualDubMod 1.5.10.3 (build 2550/release)
Библиотека кодирования : VirtualDubMod build 2550/release

Видео
Идентификатор : 0
Формат : MPEG-4 Visual
Профиль формата : Advanced Simple@L5
Параметр BVOP формата : 1
Параметр QPel формата : Нет
Параметр GMC формата : Без точки перехода
Параметр матрицы формата : Выборочная
Идентификатор кодека : XVID
Идентификатор кодека/Подсказка : XviD
Продолжительность : 1 ч. 47 м.
Битрейт : 1486 Кбит/сек
Ширина : 720 пикселей
Высота : 304 пикселя
Соотношение сторон : 2,35:1
Частота кадров : 25,000 кадров/сек
Цветовое пространство : YUV
Субдискретизация насыщенности : 4:2:0
Битовая глубина : 8 бит
Тип развёртки : Прогрессивная
Метод сжатия : С потерями
Бит/(Пиксели*Кадры) : 0.272
Размер потока : 1,11 Гбайт (76%)
Библиотека кодирования : XviD 65

Аудио
Идентификатор : 1
Формат : AC-3
Формат/Информация : Audio Coding 3
Расширение режима : CM (complete main)
Параметр Endianness формата : Big
Идентификатор кодека : 2000
Продолжительность : 1 ч. 47 м.
Вид битрейта : Постоянный
Битрейт : 448 Кбит/сек
Каналы : 6 каналов
Расположение каналов : Front: L C R, Side: L R, LFE
Частота : 48,0 КГц
Битовая глубина : 16 бит
Метод сжатия : С потерями
Размер потока : 344 Мбайт (23%)
Выравнивание : Разделение по промежуткам
Продолжительность промежутка : 40 мс. (1,00 видеокадр)
Время предзагрузки промежутка : 500 мс.





   Похожие торренты   Торрент   Размер 
В этой теме нет новых непрочитанных сообщений. Непрощенные (2009) DVDRip от Youtracker

3 | 3

745.06 МБ

В этой теме нет новых непрочитанных сообщений. Непрощенные (2009) DVDRip-AVC от Youtracker

5 | 1

1.46 ГБ

В этой теме нет новых непрочитанных сообщений. Непрощенные (2009) DVDRip-AVC от Youtracker

5 | 1

2.19 ГБ

В этой теме нет новых непрочитанных сообщений. Непрощенные (2009) DVD9 R5 от Youtracker | лицензия

1 | 1

6.78 ГБ

В этой теме нет новых непрочитанных сообщений. Непрощенные (2009) DVDRip

237 | 4

1.37 ГБ

В этой теме нет новых непрочитанных сообщений. Непрощенные (2009) DVDRip

117 | 5

1.26 ГБ

В этой теме нет новых непрочитанных сообщений. Непрощенные (2009) DVDRip от RAMpage CHG

0 | 3

701.22 МБ




Вы не можете начинать темы
Вы не можете отвечать на сообщения
Вы не можете редактировать свои сообщения
Вы не можете удалять свои сообщения
Вы не можете добавлять вложения

Перейти:  
Для Мосгорсуда, Роскомнадзора и рекламодателей: mosgorsud-torrent[собачка]yandex.ru
 Вход
ppkBB3cker v.2 © 2008-2014 @ PPK
[ Time : 0.054s | 14 Queries | GZIP : Off ]

Торрент трекер RUTOR.IN, Не можете зайти на rutor.org? Какой новый адрес рутор? Какое зеркало рутор? Не работает rutor.org и зеркала? Тогда наш торрент специально для вас. Rutor.in неофициальное зеркало rutor. В случае если у Вас заблокирован rutor или вдруг Вы не можете на него зайти, то Вы без труда сможете скачать бесплатно и без рекламы последние новинки кино, игр, сериалов и прочего у нас, на Rutor.in. Не нужно использовать прокси, чтобы зайти на рутор, достаточно воспользоваться нашим ресурсом. Все новые фильмы, игры, сериалы, книги и музыка за 2013 и 2014 годы через торрент бесплатно. Скачивайте фильмы в хорошем качестве, игры для пк, xbox, playstation без регистрации. У нас вы найдете новые Зарубежные сериалы и Русские сериалы 2013, 2014, 2015 годов. Оставайтесь с нами, качайте любимые фильмы, игры, сериалы, книги и музыку.