img image001 image001 image001 image001 image001 image001 image001 image001 image001 image001 image001 image001 image001 image001 image001 image001

Planets Sun Sun Sun
Статистика раздачи
Автор: Снежана | Размер: 1.46 ГБ | Добавлен: 24 июл 2013
Раздают: 8    Качают: 2
Скачать торрент
Скачать торрент
Описание торрента

СообщениеДобавлено: 24 июл 2013 

#77
Страна: СССР
Год выпуска: 1967
Студия: Студия Горького

Жанр: военный, боевик
Продолжительность: 01:31:18

Перевод: не требуется
Оригинальная аудиодорожка: русский
Cубтитры: нет

Режиссер: Иван Лукинский

В ролях: Геннадий Бортников, Сергей Яковлев, Николай Скоробогатов, Имеда Кахиани, Александр Новиков, Олев Эскола, Игорь Класс, Хейно Мандри, Владимир Протасенко, Рудольф Панков, Владимир Костин, Сергей Голованов, Ева Мурниеце, Людмила Гурченко...

Описание:
Вторая мировая война. В одной из немецких разведшкол готовятся диверсионные группы из русских военнопленных для заброски в СССР.
Среди них — Николай Вережников, который, не будучи профессиональным разведчиком, сумел навязать собственную игру и помешать планам врага…





Исходник: DVD5 R5
Тип релиза: DVDRip-AVC
Контейнер: MKV

Видео: 704x370@870x370 (2,35:1), 25 fps, H264 ~ 2089 kbps avg, 0.321 bit/pixel
Аудио: 48 kHz, AC3, 2 ch, 192.00 kbps

Раздача от:
Общее
Полное имя : Vzorvannyj.ad.1967.DVDRip-AVC_[Youtracker]_by_AVP Studio.mkv
Формат : Matroska
Версия формата : Version 2
Размер файла : 1,46 Гбайт
Продолжительность : 1 ч. 31 м.
Общий поток : 2283 Кбит/сек
Дата кодирования : UTC 2012-12-21 23:50:16
Программа кодирования : mkvmerge v5.0.1 ('Es ist Sommer') built on Nov 6 2011 16:23:40
Библиотека кодирования : libebml v1.2.2 + libmatroska v1.3.0

Видео
Идентификатор : 1
Формат : AVC
Формат/Информация : Advanced Video Codec
Профиль формата : High@L4.1
Параметр CABAC формата : Да
Параметр ReFrames формата : 11 кадров
Идентификатор кодека : V_MPEG4/ISO/AVC
Продолжительность : 1 ч. 31 м.
Битрейт : 2089 Кбит/сек
Ширина : 704 пикселя
Высота : 370 пикселей
Соотношение сторон : 2,35:1
Соотношение сторон в оригинале : 2,35:1
Частота кадров : 25,000 кадров/сек
Цветовое пространство : YUV
Субдискретизация насыщенности : 4:2:0
Битовая глубина : 8 бит
Тип развёртки : Прогрессивная
Бит/(Пиксели*Кадры) : 0.321
Размер потока : 1,30 Гбайт (90%)
Библиотека кодирования : x264 core 119 r2106 07efeb4
Настройки программы : cabac=1 / ref=11 / deblock=1:-2:-1 / analyse=0x3:0x113 / me=umh / subme=9 / psy=1 / psy_rd=1.00:0.20 / mixed_ref=1 / me_range=32 / chroma_me=1 / trellis=1 / 8x8dct=1 / cqm=0 / deadzone=21,11 / fast_pskip=0 / chroma_qp_offset=-3 / threads=3 / sliced_threads=0 / nr=0 / decimate=0 / interlaced=0 / bluray_compat=0 / constrained_intra=0 / bframes=8 / b_pyramid=2 / b_adapt=2 / b_bias=0 / direct=3 / weightb=1 / open_gop=0 / weightp=2 / keyint=250 / keyint_min=25 / scenecut=40 / intra_refresh=0 / rc_lookahead=60 / rc=2pass / mbtree=1 / bitrate=2089 / ratetol=1.0 / qcomp=0.60 / qpmin=0 / qpmax=69 / qpstep=4 / cplxblur=20.0 / qblur=0.5 / ip_ratio=1.40 / aq=1:1.00
Default : Да
Forced : Нет

Аудио
Идентификатор : 2
Формат : AC-3
Формат/Информация : Audio Coding 3
Расширение режима : CM (complete main)
Идентификатор кодека : A_AC3
Продолжительность : 1 ч. 31 м.
Вид битрейта : Постоянный
Битрейт : 192 Кбит/сек
Каналы : 2 канала
Расположение каналов : Front: L R
Частота : 48,0 КГц
Битовая глубина : 16 бит
Метод сжатия : С потерями
Размер потока : 125 Мбайт (8%)
Default : Да
Forced : Нет





   Похожие торренты   Торрент   Размер 
В этой теме нет новых непрочитанных сообщений. Взорванный ад (1967) DVDRip от Youtracker

17 | 2

747.57 МБ

В этой теме нет новых непрочитанных сообщений. Взорванный ад (1967) DVDRip от Youtracker

9 | 3

1.46 ГБ

В этой теме нет новых непрочитанных сообщений. Конец «Сатурна» (1967) DVDRip-AVC от Youtracker

359 | 20

743.81 МБ

В этой теме нет новых непрочитанных сообщений. Оскар / Oscar (1967) DVDRip от Youtracker | D

51 | 3

742.61 МБ

В этой теме нет новых непрочитанных сообщений. Крепкий орешек (1967) DVDRip-AVC от Youtracker

14 | 6

894.66 МБ

В этой теме нет новых непрочитанных сообщений. Конец «Сатурна» (1967) DVDRip от Youtracker

1 | 6

744.58 МБ

В этой теме нет новых непрочитанных сообщений. Путь в «Сатурн» (1967) DVDRip-AVC от Youtracker

9 | 120

741.64 МБ




Вы не можете начинать темы
Вы не можете отвечать на сообщения
Вы не можете редактировать свои сообщения
Вы не можете удалять свои сообщения
Вы не можете добавлять вложения

Перейти:  
 Вход
ppkBB3cker v.2 © 2008-2014 @ PPK
[ Time : 0.036s | 15 Queries | GZIP : Off ]

cron