img image001 image001 image001 image001 image001 image001 image001 image001 image001 image001 image001 image001 image001 image001 image001

Planets Sun Sun Sun
Статистика раздачи
Автор: Снежана | Размер: 1.46 ГБ | Добавлен: 24 июл 2013
Раздают: 16    Качают: 11
Скачать торрент
Скачать торрент
Описание торрента

СообщениеДобавлено: 24 июл 2013 

#77
Страна: СССР
Год выпуска: 1967
Студия: Ленфильм

Жанр: фантастика, комедия
Продолжительность: 01:20:37

Перевод: не требуется
Оригинальная аудиодорожка: русский
Cубтитры: нет

Режиссер: Илья Ольшвангер

В ролях: Олег Стриженов,Марианна Вертинская, Алексей Драницын, Пантелеймон Крымов, Нина Мамаева, Марсель Марсо,Владимир Поболь,Михаил Пуговкин, Юрий Толубеев, Игорь Ефимов...

Описание:
Молодой ученый создает биохимическую модель человека. Роботу «РБ-235», точной копии своего создателя, дали возможность выйти за пределы института и пожить по-человечески…





Исходник: DVD5 R5
Тип релиза: DVDRip
Контейнер: AVI

Видео: 704x304 (2,35:1), 25 fps, XviD ~ 2130 kbps avg, 0.415 bit/pixel
Аудио: 48 kHz, AC3, 6 ch, 448.00 kbps

Раздача от:
Общее
Полное имя : Ego.zvali.Robert.1967.DVDRip-1,46_[Youtracker]_by_AVP Studio.avi
Формат : AVI
Формат/Информация : Audio Video Interleave
Размер файла : 1,46 Гбайт
Продолжительность : 1 ч. 20 м.
Общий поток : 2587 Кбит/сек
Программа кодирования : VirtualDubMod 1.5.10.3 | www.virtualdub-fr.org || (build 2550/release)
Библиотека кодирования : VirtualDubMod build 2550/release

Видео
Идентификатор : 0
Формат : MPEG-4 Visual
Профиль формата : Advanced Simple@L5
Параметр BVOP формата : 1
Параметр QPel формата : Нет
Параметр GMC формата : Без точки перехода
Параметр матрицы формата : Выборочная
Идентификатор кодека : XVID
Идентификатор кодека/Подсказка : XviD
Продолжительность : 1 ч. 20 м.
Битрейт : 2130 Кбит/сек
Ширина : 704 пикселя
Высота : 304 пикселя
Соотношение сторон : 2,35:1
Частота кадров : 23,976 кадра/сек
Цветовое пространство : YUV
Субдискретизация насыщенности : 4:2:0
Битовая глубина : 8 бит
Тип развёртки : Прогрессивная
Метод сжатия : С потерями
Бит/(Пиксели*Кадры) : 0.415
Размер потока : 1,20 Гбайт (82%)
Библиотека кодирования : XviD 65

Аудио
Идентификатор : 1
Формат : AC-3
Формат/Информация : Audio Coding 3
Расширение режима : CM (complete main)
Идентификатор кодека : 2000
Продолжительность : 1 ч. 20 м.
Вид битрейта : Постоянный
Битрейт : 448 Кбит/сек
Каналы : 6 каналов
Расположение каналов : Front: L C R, Side: L R, LFE
Частота : 48,0 КГц
Битовая глубина : 16 бит
Метод сжатия : С потерями
Размер потока : 258 Мбайт (17%)
Выравнивание : Разделение по промежуткам
Продолжительность промежутка : 42 мс. (1,00 видеокадр)
Время предзагрузки промежутка : 500 мс





   Похожие торренты   Торрент   Размер 
В этой теме нет новых непрочитанных сообщений. Его звали Роберт (1967) DVDRip-AVC от Youtracker

28 | 4

1.46 ГБ

В этой теме нет новых непрочитанных сообщений. Его звали Роберт (1967) DVDRip от Youtracker

0 | 1

746.59 МБ

В этой теме нет новых непрочитанных сообщений. Взорванный ад (1967) DVDRip от Youtracker

17 | 2

747.57 МБ

В этой теме нет новых непрочитанных сообщений. Взорванный ад (1967) DVDRip от Youtracker

9 | 3

1.46 ГБ

В этой теме нет новых непрочитанных сообщений. Взорванный ад (1967) DVDRip-AVC от Youtracker

8 | 2

1.46 ГБ

В этой теме нет новых непрочитанных сообщений. Крепкий орешек (1967) DVDRip-AVC от Youtracker

14 | 6

894.66 МБ

В этой теме нет новых непрочитанных сообщений. Путь в «Сатурн» (1967) DVDRip-AVC от Youtracker

9 | 120

741.64 МБ




Вы не можете начинать темы
Вы не можете отвечать на сообщения
Вы не можете редактировать свои сообщения
Вы не можете удалять свои сообщения
Вы не можете добавлять вложения

Перейти:  
Для Мосгорсуда, Роскомнадзора и рекламодателей: mosgorsud-torrent[собачка]yandex.ru
 Вход
ppkBB3cker v.2 © 2008-2014 @ PPK
[ Time : 0.052s | 15 Queries | GZIP : Off ]

Торрент трекер RUTOR.IN, Не можете зайти на rutor.org? Какой новый адрес рутор? Какое зеркало рутор? Не работает rutor.org и зеркала? Тогда наш торрент специально для вас. Rutor.in неофициальное зеркало rutor. В случае если у Вас заблокирован rutor или вдруг Вы не можете на него зайти, то Вы без труда сможете скачать бесплатно и без рекламы последние новинки кино, игр, сериалов и прочего у нас, на Rutor.in. Не нужно использовать прокси, чтобы зайти на рутор, достаточно воспользоваться нашим ресурсом. Все новые фильмы, игры, сериалы, книги и музыка за 2013 и 2014 годы через торрент бесплатно. Скачивайте фильмы в хорошем качестве, игры для пк, xbox, playstation без регистрации. У нас вы найдете новые Зарубежные сериалы и Русские сериалы 2013, 2014, 2015 годов. Оставайтесь с нами, качайте любимые фильмы, игры, сериалы, книги и музыку.
cron