img image001 image001 image001 image001 image001 image001 image001 image001 image001 image001 image001 image001 image001 image001 image001

Planets Sun Sun Sun
Статистика раздачи
Автор: Снежана | Размер: 2.19 ГБ | Добавлен: 24 июл 2013
Раздают: 5    Качают: 1
Скачать торрент
Скачать торрент
Описание торрента

СообщениеДобавлено: 24 июл 2013 

«Шесть судеб - развязка одна.»


#77

Страна: Россия
Жанр: драма, криминал
Год выпуска: 2009
Продолжительность: 01:47:20

Перевод: не требуется
Оригинальная аудиодорожка: русский (цензурный и нецензурный)
Cубтитры: нет

Внимание!! во второй дорожке присутствует ненормативная лексика!

Режиссер: Клим Шипенко

В ролях: Михаил Бабичев, Ксения Буравская, Татьяна Васильева, Юлия Гоманюк, Анатолий Лобоцкий, Олег Долин, Ольга Ломоносова, Евгений Пронин, Константин Соловьев, Борис Хвошнянский, Константин Демидов...

Описание: Их шестеро: Андрей, Лекс, Сильвер, Лис, Дин и Дина — молодые, отчаянные, готовые на любой риск. Алиса — хозяйка злачного заведения — предлагает им хорошие деньги. Но «деньги явно не легкие» — честно предупреждает Алиса. Почему они соглашаются? У каждого за плечами свой полный криминальных приключений путь к этому решению. Поначалу не связанные друг с другом герои, волею своих лихих судеб постепенно сближаются, пока не оказываются вместе в Алисином деле. Они не жалеют, что жизнь сложилась именно так. Им нравится свобода на грани фола. И они не ищут прощения — даже перед лицом смерти…





Исходник: DVD9 R5
Тип релиза: DVDRip-AVC
Контейнер: MKV

Видео: 720x320@762x320 (2.35:1), 25 fps, H263 ~ 2146 kbps avg, 0.373 bit/pixel
Аудио 1: 48 kHz, АС3 , 6 ch, 448.00 kbps (цензурный)
Аудио 2: 48 kHz, АС3 , 6 ch, 320.00 kbps (нецензурный)

Раздача от:
Общее
Полное имя : Neproshhennye.2009.O.DVDRip-AVC.2.18GB_[Youtracker]_by_avproh.mkv
Формат : Matroska
Версия формата : Version 4 / Version 2
Размер файла : 2,19 Гбайт
Продолжительность : 1 ч. 47 м.
Общий поток : 2916 Кбит/сек
Дата кодирования : UTC 2010-02-22 21:41:31
Программа кодирования : mkvmerge v5.9.0 ('On The Loose') built on Dec 9 2012 15:37:01
Библиотека кодирования : libebml v1.3.0 + libmatroska v1.4.0

Видео
Идентификатор : 1
Формат : AVC
Формат/Информация : Advanced Video Codec
Профиль формата : High@L4.1
Параметр CABAC формата : Да
Параметр ReFrames формата : 11 кадров
Идентификатор кодека : V_MPEG4/ISO/AVC
Продолжительность : 1 ч. 47 м.
Битрейт : 2146 Кбит/сек
Ширина : 720 пикселей
Высота : 320 пикселей
Соотношение сторон : 2,40:1
Частота кадров : 25,000 кадров/сек
Цветовое пространство : YUV
Субдискретизация насыщенности : 4:2:0
Битовая глубина : 8 бит
Тип развёртки : Прогрессивная
Бит/(Пиксели*Кадры) : 0.373
Размер потока : 1,57 Гбайт (72%)
Библиотека кодирования : x264 core 119 r2106 07efeb4
Настройки программы : cabac=1 / ref=11 / deblock=1:-2:-1 / analyse=0x3:0x113 / me=umh / subme=9 / psy=1 / psy_rd=1.00:0.20 / mixed_ref=1 / me_range=32 / chroma_me=1 / trellis=1 / 8x8dct=1 / cqm=0 / deadzone=21,11 / fast_pskip=0 / chroma_qp_offset=-3 / threads=9 / sliced_threads=0 / nr=0 / decimate=0 / interlaced=0 / bluray_compat=0 / constrained_intra=0 / bframes=8 / b_pyramid=2 / b_adapt=2 / b_bias=0 / direct=3 / weightb=1 / open_gop=0 / weightp=2 / keyint=250 / keyint_min=25 / scenecut=40 / intra_refresh=0 / rc_lookahead=60 / rc=2pass / mbtree=1 / bitrate=2146 / ratetol=1.0 / qcomp=0.60 / qpmin=0 / qpmax=69 / qpstep=4 / cplxblur=20.0 / qblur=0.5 / ip_ratio=1.40 / aq=1:1.00
Язык : English
Default : Да
Forced : Нет

Аудио #1
Идентификатор : 2
Формат : AC-3
Формат/Информация : Audio Coding 3
Расширение режима : CM (complete main)
Параметр Endianness формата : Big
Идентификатор кодека : A_AC3
Продолжительность : 1 ч. 47 м.
Вид битрейта : Постоянный
Битрейт : 448 Кбит/сек
Каналы : 6 каналов
Расположение каналов : Front: L C R, Side: L R, LFE
Частота : 48,0 КГц
Битовая глубина : 16 бит
Метод сжатия : С потерями
Размер потока : 344 Мбайт (15%)
Заголовок : цензурный
Язык : Russian
Default : Да
Forced : Нет

Аудио #2
Идентификатор : 3
Формат : AC-3
Формат/Информация : Audio Coding 3
Расширение режима : CM (complete main)
Параметр Endianness формата : Big
Идентификатор кодека : A_AC3
Продолжительность : 1 ч. 47 м.
Вид битрейта : Постоянный
Битрейт : 320 Кбит/сек
Каналы : 6 каналов
Расположение каналов : Front: L C R, Side: L R, LFE
Частота : 48,0 КГц
Битовая глубина : 16 бит
Метод сжатия : С потерями
Размер потока : 246 Мбайт (11%)
Заголовок : нецензурный
Язык : Russian
Default : Нет
Forced : Нет





   Похожие торренты   Торрент   Размер 
В этой теме нет новых непрочитанных сообщений. Непрощенные (2009) DVDRip от Youtracker

3 | 3

745.06 МБ

В этой теме нет новых непрочитанных сообщений. Непрощенные (2009) DVDRip от Youtracker

6 | 2

1.46 ГБ

В этой теме нет новых непрочитанных сообщений. Непрощенные (2009) DVDRip-AVC от Youtracker

5 | 1

1.46 ГБ

В этой теме нет новых непрочитанных сообщений. Непрощенные (2009) DVD9 R5 от Youtracker | лицензия

1 | 1

6.78 ГБ

В этой теме нет новых непрочитанных сообщений. Непрощенные (2009) DVDRip

237 | 4

1.37 ГБ

В этой теме нет новых непрочитанных сообщений. Непрощенные (2009) DVDRip

117 | 5

1.26 ГБ

В этой теме нет новых непрочитанных сообщений. Непрощенные (2009) DVDRip от RAMpage CHG

0 | 3

701.22 МБ




Вы не можете начинать темы
Вы не можете отвечать на сообщения
Вы не можете редактировать свои сообщения
Вы не можете удалять свои сообщения
Вы не можете добавлять вложения

Перейти:  
Для Мосгорсуда, Роскомнадзора и рекламодателей: mosgorsud-torrent[собачка]yandex.ru
 Вход
ppkBB3cker v.2 © 2008-2014 @ PPK
[ Time : 0.065s | 15 Queries | GZIP : Off ]

Торрент трекер RUTOR.IN, Не можете зайти на rutor.org? Какой новый адрес рутор? Какое зеркало рутор? Не работает rutor.org и зеркала? Тогда наш торрент специально для вас. Rutor.in неофициальное зеркало rutor. В случае если у Вас заблокирован rutor или вдруг Вы не можете на него зайти, то Вы без труда сможете скачать бесплатно и без рекламы последние новинки кино, игр, сериалов и прочего у нас, на Rutor.in. Не нужно использовать прокси, чтобы зайти на рутор, достаточно воспользоваться нашим ресурсом. Все новые фильмы, игры, сериалы, книги и музыка за 2013 и 2014 годы через торрент бесплатно. Скачивайте фильмы в хорошем качестве, игры для пк, xbox, playstation без регистрации. У нас вы найдете новые Зарубежные сериалы и Русские сериалы 2013, 2014, 2015 годов. Оставайтесь с нами, качайте любимые фильмы, игры, сериалы, книги и музыку.