img image001 image001 image001 image001 image001 image001 image001 image001 image001 image001 image001 image001 image001 image001 image001

Planets Sun Sun Sun
Статистика раздачи
Автор: Снежана | Размер: 744.74 МБ | Добавлен: 24 июл 2013
Раздают: 14    Качают: 3
Скачать торрент
Скачать торрент
Описание торрента

СообщениеДобавлено: 24 июл 2013 

#77

Страна: Россия, Казахстан
Жанр: мелодрама, комедия
Год выпуска: 2010
Продолжительность: 01:23:16

Перевод: не требуется
Оригинальная аудиодорожка: русский
Cубтитры: нет

Режиссер: Александр Черняев

В ролях: Алексей Чадов, Асель Сагатова, Ерик Жолжаксынов, Ирина Розанова, Ольга Орлова, Наталья Рудова, Фархад Абдраимов, Марина Черняева, Гоша Куценко, Карлыгаш Мухамеджанова...

Описание: Обычный день Асель начинается с шопинга и заканчивается бокалом Мохито на веранде дорогого ресторана. Она — частая героиня светской хроники. Даже лучшие подруги ей немного завидуют, ведь у нее есть все, о чем только можно мечтать: жених — владелец нефтяных вышек, квартира в центре Москвы и жизнь, полная удовольствий. И самое главное, у нее настоящий дар притягивать к себе мужчин. Но, чтобы взять очередной рубеж, и «круто попасть на TV» все свое обаяние ей придется направить на соблазнение очень необычного мужчины.
Только один человек в мире не считает его «ботаником» и неудачником. И поэтому мама — главная женщина в его жизни и авторитет во всем. У Асель очень мало времени и перед ней много препятствий. Чтобы соблазнить неудачника ей придется справиться с серьезной соперницей в лице мамы и такими несовременными представлениями Ивана о женщинах и о Любви.





Исходник: DVD5 R5
Тип релиза: DVDRip
Контейнер: AVI

Видео: 720x304 (2.35:1), 25 fps, XviD ~ 1113 kbps avg, 0.203 bit/pixel
Аудио: 48 kHz, МР3 , 2 ch, 128.00 kbps

Раздача от:
Общее
Полное имя : Ironiya.lubvi.2010.O.DVDRip.745MB_[Youtracker]_by_avproh.avi
Формат : AVI
Формат/Информация : Audio Video Interleave
Размер файла : 745 Мбайт
Продолжительность : 1 ч. 23 м.
Общий поток : 1250 Кбит/сек
Программа кодирования : VirtualDubMod 1.5.10.3 | www.virtualdub-fr.org || (build 2550/release)
Библиотека кодирования : VirtualDubMod build 2550/release

Видео
Идентификатор : 0
Формат : MPEG-4 Visual
Профиль формата : Advanced Simple@L5
Параметр BVOP формата : 1
Параметр QPel формата : Нет
Параметр GMC формата : Без точки перехода
Параметр матрицы формата : Выборочная
Идентификатор кодека : XVID
Идентификатор кодека/Подсказка : XviD
Продолжительность : 1 ч. 23 м.
Битрейт : 1113 Кбит/сек
Ширина : 720 пикселей
Высота : 304 пикселя
Соотношение сторон : 2,35:1
Частота кадров : 25,000 кадров/сек
Цветовое пространство : YUV
Субдискретизация насыщенности : 4:2:0
Битовая глубина : 8 бит
Тип развёртки : Прогрессивная
Метод сжатия : С потерями
Бит/(Пиксели*Кадры) : 0.203
Размер потока : 663 Мбайт (89%)
Библиотека кодирования : XviD 65

Аудио
Идентификатор : 1
Формат : MPEG Audio
Версия формата : Version 1
Профиль формата : Layer 3
Идентификатор кодека : 55
Идентификатор кодека/Подсказка : MP3
Продолжительность : 1 ч. 23 м.
Вид битрейта : Постоянный
Битрейт : 128 Кбит/сек
Каналы : 2 канала
Частота : 48,0 КГц
Метод сжатия : С потерями
Размер потока : 76,2 Мбайт (10%)
Выравнивание : Соединение по промежуткам
Продолжительность промежутка : 40 мс. (1,00 видеокадр)
Время предзагрузки промежутка : 504 мс.






   Похожие торренты   Торрент   Размер 
В этой теме нет новых непрочитанных сообщений. Ирония любви (2010) DVDRip-AVC от Youtracker

29 | 3

1.46 ГБ

В этой теме нет новых непрочитанных сообщений. Ирония любви (2010) DVDRip от Youtracker

30 | 4

1.46 ГБ

В этой теме нет новых непрочитанных сообщений. Ирония любви (2010) DVD5 R5 от Youtracker | лицензия

24 | 3

4.13 ГБ

В этой теме нет новых непрочитанных сообщений. Ирония любви (2010) HDTV 1080i от MediaClub

149 | 25

8.08 ГБ

В этой теме нет новых непрочитанных сообщений. Ирония судьбы, или С легким паром! (1975) DVDRip от Youtracker

41 | 11

2.91 ГБ

В этой теме нет новых непрочитанных сообщений. Ирония судьбы, или С легким паром! (1975) DVDRip-AVC от Youtracker

284 | 27

2.91 ГБ

В этой теме нет новых непрочитанных сообщений. Ирония судьбы, или С легким паром! (1975) DVDRip от Youtracker

2215 | 101

1.46 ГБ




Вы не можете начинать темы
Вы не можете отвечать на сообщения
Вы не можете редактировать свои сообщения
Вы не можете удалять свои сообщения
Вы не можете добавлять вложения

Перейти:  
Для Мосгорсуда, Роскомнадзора и рекламодателей: mosgorsud-torrent[собачка]yandex.ru
 Вход
ppkBB3cker v.2 © 2008-2014 @ PPK
[ Time : 2.021s | 14 Queries | GZIP : Off ]

Торрент трекер RUTOR.IN, Не можете зайти на rutor.org? Какой новый адрес рутор? Какое зеркало рутор? Не работает rutor.org и зеркала? Тогда наш торрент специально для вас. Rutor.in неофициальное зеркало rutor. В случае если у Вас заблокирован rutor или вдруг Вы не можете на него зайти, то Вы без труда сможете скачать бесплатно и без рекламы последние новинки кино, игр, сериалов и прочего у нас, на Rutor.in. Не нужно использовать прокси, чтобы зайти на рутор, достаточно воспользоваться нашим ресурсом. Все новые фильмы, игры, сериалы, книги и музыка за 2013 и 2014 годы через торрент бесплатно. Скачивайте фильмы в хорошем качестве, игры для пк, xbox, playstation без регистрации. У нас вы найдете новые Зарубежные сериалы и Русские сериалы 2013, 2014, 2015 годов. Оставайтесь с нами, качайте любимые фильмы, игры, сериалы, книги и музыку.