img image001 image001 image001 image001 image001 image001 image001 image001 image001 image001 image001 image001 image001 image001 image001

Planets Sun Sun Sun
Статистика раздачи
Автор: Снежана | Размер: 1.46 ГБ | Добавлен: 24 июл 2013
Раздают: 29    Качают: 3
Скачать торрент
Скачать торрент
Описание торрента

СообщениеДобавлено: 24 июл 2013 

[imgright]]http://s4.hostingkartinok.com/uploads/images/2012/12/c955124a9c00fcfdb624de756838349f.png[/imgright]]

Страна: Россия, Казахстан
Жанр: мелодрама, комедия
Год выпуска: 2010
Продолжительность: 01:23:16

Перевод: не требуется
Оригинальная аудиодорожка: русский
Cубтитры: нет

Режиссер: Александр Черняев

В ролях: Алексей Чадов, Асель Сагатова, Ерик Жолжаксынов, Ирина Розанова, Ольга Орлова, Наталья Рудова, Фархад Абдраимов, Марина Черняева, Гоша Куценко, Карлыгаш Мухамеджанова...

Описание: Обычный день Асель начинается с шопинга и заканчивается бокалом Мохито на веранде дорогого ресторана. Она — частая героиня светской хроники. Даже лучшие подруги ей немного завидуют, ведь у нее есть все, о чем только можно мечтать: жених — владелец нефтяных вышек, квартира в центре Москвы и жизнь, полная удовольствий. И самое главное, у нее настоящий дар притягивать к себе мужчин. Но, чтобы взять очередной рубеж, и «круто попасть на TV» все свое обаяние ей придется направить на соблазнение очень необычного мужчины.
Только один человек в мире не считает его «ботаником» и неудачником. И поэтому мама — главная женщина в его жизни и авторитет во всем. У Асель очень мало времени и перед ней много препятствий. Чтобы соблазнить неудачника ей придется справиться с серьезной соперницей в лице мамы и такими несовременными представлениями Ивана о женщинах и о Любви.





Исходник: DVD5 R5
Тип релиза: DVDRip-AVC
Контейнер: MKV

Видео: 720x436@1024x436 (2.35:1), 25 fps, H264 ~ 2053 kbps avg, 0.262 bit/pixel
Аудио: 48 kHz, АС3 , 5 ch, 448.00 kbps

Раздача от:
Общее
Полное имя : Ironiya.lubvi.2010.O.DVDRip-AVC_[Youtracker]_by_avproh.mkv
Формат : Matroska
Версия формата : Version 2
Размер файла : 1,46 Гбайт
Продолжительность : 1 ч. 23 м.
Общий поток : 2503 Кбит/сек
Дата кодирования : UTC 2012-12-23 02:00:55
Программа кодирования : mkvmerge v5.0.1 ('Es ist Sommer') built on Nov 6 2011 16:23:40
Библиотека кодирования : libebml v1.2.2 + libmatroska v1.3.0

Видео
Идентификатор : 1
Формат : AVC
Формат/Информация : Advanced Video Codec
Профиль формата : High@L4.1
Параметр CABAC формата : Да
Параметр ReFrames формата : 11 кадров
Идентификатор кодека : V_MPEG4/ISO/AVC
Продолжительность : 1 ч. 23 м.
Битрейт : 2053 Кбит/сек
Ширина : 720 пикселей
Высота : 436 пикселей
Соотношение сторон : 2,35:1
Частота кадров : 25,000 кадров/сек
Цветовое пространство : YUV
Субдискретизация насыщенности : 4:2:0
Битовая глубина : 8 бит
Тип развёртки : Прогрессивная
Бит/(Пиксели*Кадры) : 0.262
Размер потока : 1,17 Гбайт (80%)
Библиотека кодирования : x264 core 119 r2106 07efeb4
Настройки программы : cabac=1 / ref=11 / deblock=1:-2:-1 / analyse=0x3:0x113 / me=umh / subme=9 / psy=1 / psy_rd=1.00:0.20 / mixed_ref=1 / me_range=32 / chroma_me=1 / trellis=1 / 8x8dct=1 / cqm=0 / deadzone=21,11 / fast_pskip=0 / chroma_qp_offset=-3 / threads=9 / sliced_threads=0 / nr=0 / decimate=0 / interlaced=0 / bluray_compat=0 / constrained_intra=0 / bframes=8 / b_pyramid=2 / b_adapt=2 / b_bias=0 / direct=3 / weightb=1 / open_gop=0 / weightp=2 / keyint=250 / keyint_min=25 / scenecut=40 / intra_refresh=0 / rc_lookahead=60 / rc=2pass / mbtree=1 / bitrate=2053 / ratetol=1.0 / qcomp=0.60 / qpmin=0 / qpmax=69 / qpstep=4 / cplxblur=20.0 / qblur=0.5 / ip_ratio=1.40 / aq=1:1.00
Default : Да
Forced : Нет

Аудио
Идентификатор : 2
Формат : AC-3
Формат/Информация : Audio Coding 3
Расширение режима : CM (complete main)
Параметр Endianness формата : Big
Идентификатор кодека : A_AC3
Продолжительность : 1 ч. 23 м.
Вид битрейта : Постоянный
Битрейт : 448 Кбит/сек
Каналы : 5 каналов
Расположение каналов : Front: L C R, Side: L R
Частота : 48,0 КГц
Битовая глубина : 16 бит
Метод сжатия : С потерями
Размер потока : 267 Мбайт (18%)
Default : Да
Forced : Нет





   Похожие торренты   Торрент   Размер 
В этой теме нет новых непрочитанных сообщений. Ирония любви (2010) DVDRip от Youtracker

30 | 4

1.46 ГБ

В этой теме нет новых непрочитанных сообщений. Ирония любви (2010) DVDRip от Youtracker

14 | 3

744.74 МБ

В этой теме нет новых непрочитанных сообщений. Ирония любви (2010) DVD5 R5 от Youtracker | лицензия

24 | 3

4.13 ГБ

В этой теме нет новых непрочитанных сообщений. Ирония любви (2010) HDTV 1080i от MediaClub

149 | 25

8.08 ГБ

В этой теме нет новых непрочитанных сообщений. Ирония судьбы, или С легким паром! (1975) DVDRip от Youtracker

41 | 11

2.91 ГБ

В этой теме нет новых непрочитанных сообщений. Ирония судьбы, или С легким паром! (1975) DVDRip-AVC от Youtracker

284 | 27

2.91 ГБ

В этой теме нет новых непрочитанных сообщений. Ирония судьбы, или С легким паром! (1975) DVDRip от Youtracker

2215 | 101

1.46 ГБ




Вы не можете начинать темы
Вы не можете отвечать на сообщения
Вы не можете редактировать свои сообщения
Вы не можете удалять свои сообщения
Вы не можете добавлять вложения

Перейти:  
Для Мосгорсуда, Роскомнадзора и рекламодателей: mosgorsud-torrent[собачка]yandex.ru
 Вход
ppkBB3cker v.2 © 2008-2014 @ PPK
[ Time : 0.491s | 15 Queries | GZIP : Off ]

cron