img image001 image001 image001 image001 image001 image001 image001 image001 image001 image001 image001 image001 image001 image001 image001

Planets Sun Sun Sun
Статистика раздачи
Автор: Снежана | Размер: 1.46 ГБ | Добавлен: 24 июл 2013
Раздают: 33    Качают: 6
Скачать торрент
Скачать торрент
Описание торрента

СообщениеДобавлено: 24 июл 2013 

#77
Страна: СССР
Год выпуска: 1960
Студия: Мосфильм

Жанр: криминальная драма
Продолжительность: 01:34:32

Перевод: не требуется
Оригинальная аудиодорожка: русский
Cубтитры: нет

Режиссер: Владимир Герасимов

В ролях: Олег Ефремов, Олег Табаков, Вячеслав Невинный, Борис Новиков, Евгений Тетерин, Тамара Логинова, Татьяна Лаврова, Павел Винник, Андрей Тутышкин, Евгений Урбанский, Валентина Токарская, Владимир Соловьев, Петр Репнин, Альберт Филозов...

Описание: 1923 год. Зайцев и Егоров по путевке комсомола направляются в угрозыск. Новичкам дают испытательный срок. Застенчивому и нерешительному Егорову поручают следить за документацией. Он особенно и не сопротивляется. Зайцев с нетерпением ждет большой разборки с бандюгами. Опытный работник угрозыска Жур, получивший накануне ранение, привлекает стажеров к делу о самоубийстве аптекаря и терпеливо дает наставления. На взгляд разгоряченного Зайцева оно кажется пустячным и даже несколько оскорбительным...





Исходник: DVD5 R5
Тип релиза: DVDRip
Контейнер: AVI

Видео: 688x512 (4:3), 25 fps, XviD ~ 1811 kbps avg, 0.206 bit/pixel
Аудио: 48 kHz, AC3, 6 ch, 384.00 kbps

Раздача от:
Общее
Полное имя : Ispytatel'nyj.srok.1960.DVDRip_[Youtracker]_by_AVP Studio.avi
Формат : AVI
Формат/Информация : Audio Video Interleave
Размер файла : 1,46 Гбайт
Продолжительность : 1 ч. 34 м.
Общий поток : 2205 Кбит/сек
Программа кодирования : VirtualDubMod 1.5.10.3 | www.virtualdub-fr.org || (build 2550/release)
Библиотека кодирования : VirtualDubMod build 2550/release

Видео
Идентификатор : 0
Формат : MPEG-4 Visual
Профиль формата : Advanced Simple@L5
Параметр BVOP формата : 1
Параметр QPel формата : Нет
Параметр GMC формата : Без точки перехода
Параметр матрицы формата : Выборочная
Идентификатор кодека : XVID
Идентификатор кодека/Подсказка : XviD
Продолжительность : 1 ч. 34 м.
Битрейт : 1811 Кбит/сек
Ширина : 688 пикселей
Высота : 512 пикселей
Соотношение сторон : 4:3
Частота кадров : 25,000 кадров/сек
Цветовое пространство : YUV
Субдискретизация насыщенности : 4:2:0
Битовая глубина : 8 бит
Тип развёртки : Прогрессивная
Метод сжатия : С потерями
Бит/(Пиксели*Кадры) : 0.206
Размер потока : 1,20 Гбайт (82%)
Библиотека кодирования : XviD 65

Аудио
Идентификатор : 1
Формат : AC-3
Формат/Информация : Audio Coding 3
Расширение режима : CM (complete main)
Идентификатор кодека : 2000
Продолжительность : 1 ч. 34 м.
Вид битрейта : Постоянный
Битрейт : 384 Кбит/сек
Каналы : 6 каналов
Расположение каналов : Front: L C R, Side: L R, LFE
Частота : 48,0 КГц
Битовая глубина : 16 бит
Метод сжатия : С потерями
Размер потока : 260 Мбайт (17%)
Выравнивание : Разделение по промежуткам
Продолжительность промежутка : 40 мс. (1,00 видеокадр)
Время предзагрузки промежутка : 500 мс





   Похожие торренты   Торрент   Размер 
В этой теме нет новых непрочитанных сообщений. Испытательный срок (1960) DVDRip от Youtracker

5 | 5

744.46 МБ

В этой теме нет новых непрочитанных сообщений. Испытательный срок (1960) DVDRip-AVC от Youtracker

63 | 7

1.46 ГБ

В этой теме нет новых непрочитанных сообщений. Испытательный срок (2014) HDTVRip от Files-x

526 | 24

1.37 ГБ

В этой теме нет новых непрочитанных сообщений. Испытательный срок / 21 день (2014) SATRip

493 | 18

1.36 ГБ

В этой теме нет новых непрочитанных сообщений. Осторожно, бабушка! (1960) DVDRip-AVC от Youtracker

239 | 12

1.46 ГБ

В этой теме нет новых непрочитанных сообщений. Шумный день (1960) DVDRip от Youtracker

101 | 13

1.46 ГБ

В этой теме нет новых непрочитанных сообщений. Осторожно, бабушка! (1960) DVDRip от Youtracker

7 | 7

744.23 МБ




Вы не можете начинать темы
Вы не можете отвечать на сообщения
Вы не можете редактировать свои сообщения
Вы не можете удалять свои сообщения
Вы не можете добавлять вложения

Перейти:  
Для Мосгорсуда, Роскомнадзора и рекламодателей: mosgorsud-torrent[собачка]yandex.ru
 Вход
ppkBB3cker v.2 © 2008-2014 @ PPK
[ Time : 0.049s | 14 Queries | GZIP : On ]

Торрент трекер RUTOR.IN, Не можете зайти на rutor.org? Какой новый адрес рутор? Какое зеркало рутор? Не работает rutor.org и зеркала? Тогда наш торрент специально для вас. Rutor.in неофициальное зеркало rutor. В случае если у Вас заблокирован rutor или вдруг Вы не можете на него зайти, то Вы без труда сможете скачать бесплатно и без рекламы последние новинки кино, игр, сериалов и прочего у нас, на Rutor.in. Не нужно использовать прокси, чтобы зайти на рутор, достаточно воспользоваться нашим ресурсом. Все новые фильмы, игры, сериалы, книги и музыка за 2013 и 2014 годы через торрент бесплатно. Скачивайте фильмы в хорошем качестве, игры для пк, xbox, playstation без регистрации. У нас вы найдете новые Зарубежные сериалы и Русские сериалы 2013, 2014, 2015 годов. Оставайтесь с нами, качайте любимые фильмы, игры, сериалы, книги и музыку.