img image001 image001 image001 image001 image001 image001 image001 image001 image001 image001 image001 image001 image001 image001 image001

Planets Sun Sun Sun
Статистика раздачи
Автор: Снежана | Размер: 746.86 МБ | Добавлен: 24 июл 2013
Раздают: 9    Качают: 8
Скачать торрент
Скачать торрент
Описание торрента

СообщениеДобавлено: 24 июл 2013 

#77
Страна: СССР
Год выпуска: 1960
Студия: Мосфильм

Жанр: мелодрама, комедия
Продолжительность: 01:33:26

Перевод: не требуется
Оригинальная аудиодорожка: русский
Cубтитры: нет

Режиссер: Анатолий Эфрос, Георгий Натансон

В ролях: Валентина Сперантова, Геннадий Печников, Татьяна Надеждина, Владимир Земляникин, Олег Табаков, Лидия Толмачева, Евгений Перов, Лев Круглый, Виктория Духина, Р.Чумак, Инна Гулая, Е.Савченко, Александра Данилова...

Описание:
На обычной московской улице в ничем не примечательном доме дружно живет семья: мать и четверо детей. Но в один «прекрасный» день в этой семье происходит жестокий конфликт из-за мебели, которой забита квартира.
Впрочем, мебель — только повод. На самом деле сталкиваются два мировоззрения, разные представления о жизненных ценностях… По мотивам комедии В. Розова «В поисках радости».





Исходник: DVD5 R5
Тип релиза: DVDRip
Контейнер: AVI

Видео: 688x288 (2.35:1), 25 fps, XviD ~ 980 kbps avg, 0.198 bit/pixel
Аудио: 48 kHz, MP3, 2 ch, 128.00 kbps

Раздача от:
Общее
Полное имя : Shumnyj.den'.1960.DVDRip-745_[Youtracker]_by_AVP Studio.avi
Формат : AVI
Формат/Информация : Audio Video Interleave
Размер файла : 747 Мбайт
Продолжительность : 1 ч. 33 м.
Общий поток : 1118 Кбит/сек
Программа кодирования : VirtualDubMod 1.5.10.3 | www.virtualdub-fr.org || (build 2550/release)
Библиотека кодирования : VirtualDubMod build 2550/release

Видео
Идентификатор : 0
Формат : MPEG-4 Visual
Профиль формата : Advanced Simple@L5
Параметр BVOP формата : 1
Параметр QPel формата : Нет
Параметр GMC формата : Без точки перехода
Параметр матрицы формата : Выборочная
Идентификатор кодека : XVID
Идентификатор кодека/Подсказка : XviD
Продолжительность : 1 ч. 33 м.
Битрейт : 980 Кбит/сек
Ширина : 688 пикселей
Высота : 288 пикселей
Соотношение сторон : 2,40:1
Частота кадров : 25,000 кадров/сек
Цветовое пространство : YUV
Субдискретизация насыщенности : 4:2:0
Битовая глубина : 8 бит
Тип развёртки : Прогрессивная
Метод сжатия : С потерями
Бит/(Пиксели*Кадры) : 0.198
Размер потока : 655 Мбайт (88%)
Библиотека кодирования : XviD 65

Аудио
Идентификатор : 1
Формат : MPEG Audio
Версия формата : Version 1
Профиль формата : Layer 3
Идентификатор кодека : 55
Идентификатор кодека/Подсказка : MP3
Продолжительность : 1 ч. 33 м.
Вид битрейта : Постоянный
Битрейт : 128 Кбит/сек
Каналы : 2 канала
Частота : 48,0 КГц
Метод сжатия : С потерями
Размер потока : 85,5 Мбайт (11%)
Выравнивание : Соединение по промежуткам
Продолжительность промежутка : 40 мс. (1,00 видеокадр)
Время предзагрузки промежутка : 504 мс.
Библиотека кодирования : L3.99r
Настройки программы : -m s -V 4 -q 2 -lowpass 17 -b 128





   Похожие торренты   Торрент   Размер 
В этой теме нет новых непрочитанных сообщений. Шумный день (1960) DVDRip от Youtracker

101 | 13

1.46 ГБ

В этой теме нет новых непрочитанных сообщений. Шумный день (1960) DVDRip-AVC от Youtracker

30 | 5

1.46 ГБ

В этой теме нет новых непрочитанных сообщений. Испытательный срок (1960) DVDRip-AVC от Youtracker

63 | 7

1.46 ГБ

В этой теме нет новых непрочитанных сообщений. Нормандия - Неман (1960) DVDRip-AVC от Youtracker

8 | 5

1.46 ГБ

В этой теме нет новых непрочитанных сообщений. Нормандия - Неман (1960) DVDRip от Youtracker

1 | 2

1.46 ГБ

В этой теме нет новых непрочитанных сообщений. Нормандия - Неман (1960) DVDRip от Youtracker

2 | 2

895.8 МБ

В этой теме нет новых непрочитанных сообщений. Осторожно, бабушка! (1960) DVDRip-AVC от Youtracker

239 | 12

1.46 ГБ




Вы не можете начинать темы
Вы не можете отвечать на сообщения
Вы не можете редактировать свои сообщения
Вы не можете удалять свои сообщения
Вы не можете добавлять вложения

Перейти:  
Для Мосгорсуда, Роскомнадзора и рекламодателей: mosgorsud-torrent[собачка]yandex.ru
 Вход
ppkBB3cker v.2 © 2008-2014 @ PPK
[ Time : 0.042s | 15 Queries | GZIP : Off ]

cron