img image001 image001 image001 image001 image001 image001 image001 image001 image001 image001 image001 image001 image001 image001 image001

Planets Sun Sun Sun
Статистика раздачи
Автор: Снежана | Размер: 1.46 ГБ | Добавлен: 24 июл 2013
Раздают: 101    Качают: 13
Скачать торрент
Скачать торрент
Описание торрента

СообщениеДобавлено: 24 июл 2013 

#77
Страна: СССР
Год выпуска: 1960
Студия: Мосфильм

Жанр: мелодрама, комедия
Продолжительность: 01:33:26

Перевод: не требуется
Оригинальная аудиодорожка: русский
Cубтитры: нет

Режиссер: Анатолий Эфрос, Георгий Натансон

В ролях: Валентина Сперантова, Геннадий Печников, Татьяна Надеждина, Владимир Земляникин, Олег Табаков, Лидия Толмачева, Евгений Перов, Лев Круглый, Виктория Духина, Р.Чумак, Инна Гулая, Е.Савченко, Александра Данилова...

Описание:
На обычной московской улице в ничем не примечательном доме дружно живет семья: мать и четверо детей. Но в один «прекрасный» день в этой семье происходит жестокий конфликт из-за мебели, которой забита квартира.
Впрочем, мебель — только повод. На самом деле сталкиваются два мировоззрения, разные представления о жизненных ценностях… По мотивам комедии В. Розова «В поисках радости».





Исходник: DVD5 R5
Тип релиза: DVDRip
Контейнер: AVI

Видео: 720x304 (2.35:1), 25 fps, XviD ~ 2031 kbps avg, 0.371 bit/pixel
Аудио: 48 kHz, AC3, 2 ch, 192.00 kbps

Раздача от:
Общее
Полное имя : Shumnyj.den'.1960.DVDRip_[Youtracker]_by_AVP Studio.avi
Формат : AVI
Формат/Информация : Audio Video Interleave
Размер файла : 1,46 Гбайт
Продолжительность : 1 ч. 33 м.
Общий поток : 2233 Кбит/сек
Программа кодирования : VirtualDubMod 1.5.10.3 | www.virtualdub-fr.org || (build 2550/release)
Библиотека кодирования : VirtualDubMod build 2550/release

Видео
Идентификатор : 0
Формат : MPEG-4 Visual
Профиль формата : Advanced Simple@L5
Параметр BVOP формата : 1
Параметр QPel формата : Нет
Параметр GMC формата : Без точки перехода
Параметр матрицы формата : Выборочная
Идентификатор кодека : XVID
Идентификатор кодека/Подсказка : XviD
Продолжительность : 1 ч. 33 м.
Битрейт : 2031 Кбит/сек
Ширина : 720 пикселей
Высота : 304 пикселя
Соотношение сторон : 2,35:1
Частота кадров : 25,000 кадров/сек
Цветовое пространство : YUV
Субдискретизация насыщенности : 4:2:0
Битовая глубина : 8 бит
Тип развёртки : Прогрессивная
Метод сжатия : С потерями
Бит/(Пиксели*Кадры) : 0.371
Размер потока : 1,33 Гбайт (91%)
Библиотека кодирования : XviD 65

Аудио
Идентификатор : 1
Формат : AC-3
Формат/Информация : Audio Coding 3
Расширение режима : CM (complete main)
Идентификатор кодека : 2000
Продолжительность : 1 ч. 33 м.
Вид битрейта : Постоянный
Битрейт : 192 Кбит/сек
Каналы : 2 канала
Расположение каналов : Front: L R
Частота : 48,0 КГц
Битовая глубина : 16 бит
Метод сжатия : С потерями
Размер потока : 128 Мбайт (9%)
Выравнивание : Разделение по промежуткам
Продолжительность промежутка : 40 мс. (1,00 видеокадр)
Время предзагрузки промежутка : 500 мс





   Похожие торренты   Торрент   Размер 
В этой теме нет новых непрочитанных сообщений. Шумный день (1960) DVDRip-AVC от Youtracker

30 | 5

1.46 ГБ

В этой теме нет новых непрочитанных сообщений. Шумный день (1960) DVDRip от Youtracker

9 | 8

746.86 МБ

В этой теме нет новых непрочитанных сообщений. Осторожно, бабушка! (1960) DVDRip от Youtracker

17 | 10

1.46 ГБ

В этой теме нет новых непрочитанных сообщений. Нормандия - Неман (1960) DVDRip от Youtracker

2 | 2

895.8 МБ

В этой теме нет новых непрочитанных сообщений. Нормандия - Неман (1960) DVDRip от Youtracker

1 | 2

1.46 ГБ

В этой теме нет новых непрочитанных сообщений. Осторожно, бабушка! (1960) DVDRip-AVC от Youtracker

239 | 12

1.46 ГБ

В этой теме нет новых непрочитанных сообщений. Испытательный срок (1960) DVDRip от Youtracker

33 | 6

1.46 ГБ




Вы не можете начинать темы
Вы не можете отвечать на сообщения
Вы не можете редактировать свои сообщения
Вы не можете удалять свои сообщения
Вы не можете добавлять вложения

Перейти:  
Для Мосгорсуда, Роскомнадзора и рекламодателей: mosgorsud-torrent[собачка]yandex.ru
 Вход
ppkBB3cker v.2 © 2008-2014 @ PPK
[ Time : 0.028s | 16 Queries | GZIP : Off ]

cron