img image001 image001 image001 image001 image001 image001 image001 image001 image001 image001 image001 image001 image001 image001 image001

Planets Sun Sun Sun
Статистика раздачи
Автор: Снежана | Размер: 1.46 ГБ | Добавлен: 24 июл 2013
Раздают: 138    Качают: 12
Скачать торрент
Скачать торрент
Описание торрента

СообщениеДобавлено: 24 июл 2013 

«Весенняя охота на принцесс»


#77

Страна: Россия
Жанр: мелодрама, комедия
Год выпуска: 2007
Продолжительность: 01:38:40

Перевод: не требуется
Оригинальная аудиодорожка: русский
Cубтитры: нет

Режиссер: Александр Черняев

В ролях: Гоша Куценко, Оскар Кучера, Елена Полякова, Нина Усатова, Александр Тютин, Татьяна Васильева, Жерар Депардье, Валерий Соловьев, Сергей Рост, Кирилл Жандаров...

Описание: Каждому из нас хоть на денек хотелось стать кем-то другим, жить и чувствовать по-другому. Влекомая красотами ночного Петербурга, оставив служанок и гувернантку в глубине засыпающего дворца, французская принцесса выбирается из окна на внеплановую прогулку.
Счастливчик Макс был немало удивлен, обнаружив в своей случайной знакомой полное сходство с недавно прибывшей в Россию принцессой Марией. И, не желая упускать «крупную рыбу», становится ее спутником.
Казалось бы, уже набралось немало событий, обещающих сенсационный материал о невероятных приключениях иностранки, сдобренный прекрасными фотографиями Гарика — чего стоит только «первая сигарета принцессы». Но, самое слабое звено, человеческое сердце, черствого журналиста дрогнуло перед обаянием и почти что ребяческой наивностью, с которой наслаждалась городом и новой собой вчерашняя принцесса. Похоже, профессиональные цели сменятся надеждами на взаимность. Как удержать любимую, которая неумолимо скоро должна вернуться к любимому папе, во Францию?





Исходник: DVD5 R5
Тип релиза: DVDRip
Контейнер: AVI

Видео: 720x304 (2.35:1), 25 fps, XviD ~ 1721 kbps avg, 0.314 bit/pixel
Аудио: 48 kHz, АС3 , 6 ch, 384.00 kbps

Раздача от:
Общее
Полное имя : Vse.mogut.koroli.2008.O.DVDRip_[Youtracker]_by_avproh.avi
Формат : AVI
Формат/Информация : Audio Video Interleave
Размер файла : 1,46 Гбайт
Продолжительность : 1 ч. 38 м.
Общий поток : 2115 Кбит/сек
Программа кодирования : VirtualDubMod 1.5.10.3 | www.virtualdub-fr.org || (build 2550/release)
Библиотека кодирования : VirtualDubMod build 2550/release

Видео
Идентификатор : 0
Формат : MPEG-4 Visual
Профиль формата : Advanced Simple@L5
Параметр BVOP формата : 1
Параметр QPel формата : Нет
Параметр GMC формата : Без точки перехода
Параметр матрицы формата : Выборочная
Идентификатор кодека : XVID
Идентификатор кодека/Подсказка : XviD
Продолжительность : 1 ч. 38 м.
Битрейт : 1721 Кбит/сек
Ширина : 720 пикселей
Высота : 304 пикселя
Соотношение сторон : 2,35:1
Частота кадров : 25,000 кадров/сек
Цветовое пространство : YUV
Субдискретизация насыщенности : 4:2:0
Битовая глубина : 8 бит
Тип развёртки : Прогрессивная
Метод сжатия : С потерями
Бит/(Пиксели*Кадры) : 0.314
Размер потока : 1,19 Гбайт (81%)
Библиотека кодирования : XviD 65

Аудио
Идентификатор : 1
Формат : AC-3
Формат/Информация : Audio Coding 3
Расширение режима : CM (complete main)
Параметр Endianness формата : Big
Идентификатор кодека : 2000
Продолжительность : 1 ч. 38 м.
Вид битрейта : Постоянный
Битрейт : 384 Кбит/сек
Каналы : 6 каналов
Расположение каналов : Front: L C R, Side: L R, LFE
Частота : 48,0 КГц
Битовая глубина : 16 бит
Метод сжатия : С потерями
Размер потока : 271 Мбайт (18%)
Выравнивание : Разделение по промежуткам
Продолжительность промежутка : 40 мс. (1,00 видеокадр)
Время предзагрузки промежутка : 500 мс.



http://rutor.org/torrent/3786/vse-mogut-koroli-2007-dvdrip

http://www.check2pic.ru/compare/24568/ - видим у конкурента недокроп снизу и перекроп по бокам, а последняя пара скринов приведена потому, что точно на 01:38:40 и кончается фильм как у меня, так и у конкурента, однако у него там приклеено не совсем понятно что, сначала клип какой-то, но большая часть видимо допы к фильму в половинном формате: и сие длится более 25 минут...



   Похожие торренты   Торрент   Размер 
В этой теме нет новых непрочитанных сообщений. Все могут короли (2008) DVDRip от Youtracker

7 | 3

744.89 МБ

В этой теме нет новых непрочитанных сообщений. Всё могут короли (2008) DVD5 R5 от Youtracker | лицензия

5 | 3

3.48 ГБ

В этой теме нет новых непрочитанных сообщений. Все могут короли [01-10 из 10] (2015) HDTVRip-AVC от Files-x

210 | 52

6.26 ГБ

В этой теме нет новых непрочитанных сообщений. Все могут короли [01 из 12] (2015) WEB-DLRip от Files-x

320 | 280

6.43 ГБ

В этой теме нет новых непрочитанных сообщений. Все могут короли [01-10 из 10] (2015) HDTVRip от Files-x

1892 | 389

5.38 ГБ

В этой теме нет новых непрочитанных сообщений. Все могут короли [01-06 из 09] (2015) HDTVRip-AVC от Files-x

90 | 0

3.76 ГБ

В этой теме нет новых непрочитанных сообщений. Все могут короли [01-10 из 10] (2015) HDTVRip от MediaClub | КПК

129 | 369

1.8 ГБ




Вы не можете начинать темы
Вы не можете отвечать на сообщения
Вы не можете редактировать свои сообщения
Вы не можете удалять свои сообщения
Вы не можете добавлять вложения

Перейти:  
Для Мосгорсуда, Роскомнадзора и рекламодателей: mosgorsud-torrent[собачка]yandex.ru
 Вход
ppkBB3cker v.2 © 2008-2014 @ PPK
[ Time : 0.152s | 14 Queries | GZIP : Off ]

Торрент трекер RUTOR.IN, Не можете зайти на rutor.org? Какой новый адрес рутор? Какое зеркало рутор? Не работает rutor.org и зеркала? Тогда наш торрент специально для вас. Rutor.in неофициальное зеркало rutor. В случае если у Вас заблокирован rutor или вдруг Вы не можете на него зайти, то Вы без труда сможете скачать бесплатно и без рекламы последние новинки кино, игр, сериалов и прочего у нас, на Rutor.in. Не нужно использовать прокси, чтобы зайти на рутор, достаточно воспользоваться нашим ресурсом. Все новые фильмы, игры, сериалы, книги и музыка за 2013 и 2014 годы через торрент бесплатно. Скачивайте фильмы в хорошем качестве, игры для пк, xbox, playstation без регистрации. У нас вы найдете новые Зарубежные сериалы и Русские сериалы 2013, 2014, 2015 годов. Оставайтесь с нами, качайте любимые фильмы, игры, сериалы, книги и музыку.