img image001 image001 image001 image001 image001 image001 image001 image001 image001 image001 image001 image001 image001 image001 image001

Planets Sun Sun Sun
Статистика раздачи
Автор: Снежана | Размер: 1.46 ГБ | Добавлен: 24 июл 2013
Раздают: 0    Качают: 3
Скачать торрент
Скачать торрент
Описание торрента

СообщениеДобавлено: 24 июл 2013 

#77

Страна: Россия
Жанр: драма
Год выпуска: 2007
Продолжительность: 01:40:08

Перевод: не требуется
Оригинальная аудиодорожка: русский
Cубтитры: нет

Режиссер: Григорий Никулин

В ролях: Сергей Дрейден, Александр Баргман, Юрий Шевчук, Татьяна Ткач, Вячеслав Захаров, Марина Солопченко, Евгения Игумнова, Лариса Розыграева, Эра Зиганшина, Николай Микенин

Описание: Главная героиня этой — Антонина — жена, мать, хозяйка в доме, просыпается после необычайно яркого сна и понимает, что всю свою жизнь прожила не так, как хотела. Рядом чужие люди, которых она не любит и вообще, все это была НЕ ЕЕ жизнь.
Осознает она это так ясно, что даже на похоронах собственного мужа Антонина не плачет, не убивается и, кажется, что эта смерть вообще ее не касается. И это несмотря на то, что с мужем прожита долгая и благополучная жизнь…





Исходник: DVD5 R5
Тип релиза: DVDRip
Контейнер: AVI

Видео: 720x432 (1.667:1), 25 fps, XviD ~ 1850 kbps avg, 0.238 bit/pixel
Аудио: 48 kHz, AC3 , 2 ch, 224.00 kbps

Раздача от:
Общее
Полное имя : Antonina.obernulas.2007.O.DVDRip_[Youtracker]_by_avproh.avi
Формат : AVI
Формат/Информация : Audio Video Interleave
Размер файла : 1,46 Гбайт
Продолжительность : 1 ч. 40 м.
Общий поток : 2083 Кбит/сек
Программа кодирования : VirtualDubMod 1.5.10.3 | www.virtualdub-fr.org || (build 2550/release)
Библиотека кодирования : VirtualDubMod build 2550/release

Видео
Идентификатор : 0
Формат : MPEG-4 Visual
Профиль формата : Advanced Simple@L5
Параметр BVOP формата : 1
Параметр QPel формата : Нет
Параметр GMC формата : Без точки перехода
Параметр матрицы формата : Выборочная
Идентификатор кодека : XVID
Идентификатор кодека/Подсказка : XviD
Продолжительность : 1 ч. 40 м.
Битрейт : 1850 Кбит/сек
Ширина : 720 пикселей
Высота : 432 пикселя
Соотношение сторон : 1,667
Частота кадров : 25,000 кадров/сек
Цветовое пространство : YUV
Субдискретизация насыщенности : 4:2:0
Битовая глубина : 8 бит
Тип развёртки : Прогрессивная
Метод сжатия : С потерями
Бит/(Пиксели*Кадры) : 0.238
Размер потока : 1,29 Гбайт (89%)
Библиотека кодирования : XviD 65

Аудио
Идентификатор : 1
Формат : AC-3
Формат/Информация : Audio Coding 3
Расширение режима : CM (complete main)
Параметр Endianness формата : Big
Идентификатор кодека : 2000
Продолжительность : 1 ч. 40 м.
Вид битрейта : Постоянный
Битрейт : 224 Кбит/сек
Каналы : 2 канала
Расположение каналов : Front: L R
Частота : 48,0 КГц
Битовая глубина : 16 бит
Метод сжатия : С потерями
Размер потока : 160 Мбайт (11%)
Выравнивание : Разделение по промежуткам
Продолжительность промежутка : 40 мс. (1,00 видеокадр)
Время предзагрузки промежутка : 500 мс.





   Похожие торренты   Торрент   Размер 
В этой теме нет новых непрочитанных сообщений. Антонина обернулась (2007) DVDRip от Youtracker

3 | 2

745.18 МБ

В этой теме нет новых непрочитанных сообщений. Игорь Вагин, Антонина Глущай - Поднимись над толпой. Искусство быть лидером (2009) MP3

1 | 7

140.75 МБ

В этой теме нет новых непрочитанных сообщений. По барабану / Dhol (2007) DVDRip от Youtracker | P

1 | 2

1.46 ГБ

В этой теме нет новых непрочитанных сообщений. По барабану / Dhol (2007) DVDRip от Youtracker | P

0 | 2

2.2 ГБ

В этой теме нет новых непрочитанных сообщений. Шекспиру и не снилось (2007) DVDRip-AVC от Youtracker

6 | 4

1.46 ГБ

В этой теме нет новых непрочитанных сообщений. Живописная авантюра (2007) DVDRip-AVC от Youtracker

4 | 2

1.46 ГБ

В этой теме нет новых непрочитанных сообщений. Пожарный пес / Firehouse Dog (2007) DVDRip от Youtracker | P

3 | 2

2.19 ГБ




Вы не можете начинать темы
Вы не можете отвечать на сообщения
Вы не можете редактировать свои сообщения
Вы не можете удалять свои сообщения
Вы не можете добавлять вложения

Перейти:  
Для Мосгорсуда, Роскомнадзора и рекламодателей: mosgorsud-torrent[собачка]yandex.ru
 Вход
ppkBB3cker v.2 © 2008-2014 @ PPK
[ Time : 0.031s | 14 Queries | GZIP : Off ]

Торрент трекер RUTOR.IN, Не можете зайти на rutor.org? Какой новый адрес рутор? Какое зеркало рутор? Не работает rutor.org и зеркала? Тогда наш торрент специально для вас. Rutor.in неофициальное зеркало rutor. В случае если у Вас заблокирован rutor или вдруг Вы не можете на него зайти, то Вы без труда сможете скачать бесплатно и без рекламы последние новинки кино, игр, сериалов и прочего у нас, на Rutor.in. Не нужно использовать прокси, чтобы зайти на рутор, достаточно воспользоваться нашим ресурсом. Все новые фильмы, игры, сериалы, книги и музыка за 2013 и 2014 годы через торрент бесплатно. Скачивайте фильмы в хорошем качестве, игры для пк, xbox, playstation без регистрации. У нас вы найдете новые Зарубежные сериалы и Русские сериалы 2013, 2014, 2015 годов. Оставайтесь с нами, качайте любимые фильмы, игры, сериалы, книги и музыку.