img image001 image001 image001 image001 image001 image001 image001 image001 image001 image001 image001 image001 image001 image001 image001

Planets Sun Sun Sun
Статистика раздачи
Автор: Снежана | Размер: 1.43 ГБ | Добавлен: 24 июл 2013
Раздают: 0    Качают: 2
Скачать торрент
Скачать торрент
Описание торрента

СообщениеДобавлено: 24 июл 2013 

#77

Страна: СССР
Студия: Мосфильм
Жанр: драма
Год выпуска: 1989
Продолжительность: 01:18:37

Перевод: не требуется
Оригинальная аудиодорожка: русский
Cубтитры: нет

Режиссер: Олег Сафаралиев

В ролях: Павел Белозеров, Елена Финогеева, Татьяна Гаврилова, Андрей Градов, Борис Иванов, Глеб Плаксин, Яна Поплавская, Евгения Симонова, Владимир Симонов, Александр Яцко...

Описание: Похороны очередного генсека К. У. Черненко. Работник редакции Сергей Еремин решает, наконец, опубликовать повесть своего друга, которого он когда-то предал. Но рукопись исчезла, и Сергей решается на откровенный разговор с автором.





Исходник: DVD5 R5
Тип релиза: DVDRip
Контейнер: AVI

Видео: 720x528 (4:3), 25 fps, XviD ~ 2400 kbps avg, 0.253 bit/pixel
Аудио: 48 kHz, AC3 , 2 ch, 192.00 kbps

Раздача от:
Общее
Полное имя : Pryamaya.translyatsiya.1989.O.DVDRip_[Youtracker]_by_avproh.avi
Формат : AVI
Формат/Информация : Audio Video Interleave
Размер файла : 1,43 Гбайт
Продолжительность : 1 ч. 18 м.
Общий поток : 2602 Кбит/сек
Программа кодирования : VirtualDubMod 1.5.10.3 | www.virtualdub-fr.org || (build 2550/release)
Библиотека кодирования : VirtualDubMod build 2550/release

Видео
Идентификатор : 0
Формат : MPEG-4 Visual
Профиль формата : Advanced Simple@L5
Параметр BVOP формата : 1
Параметр QPel формата : Нет
Параметр GMC формата : Без точки перехода
Параметр матрицы формата : Выборочная
Идентификатор кодека : XVID
Идентификатор кодека/Подсказка : XviD
Продолжительность : 1 ч. 18 м.
Битрейт : 2400 Кбит/сек
Ширина : 720 пикселей
Высота : 528 пикселей
Соотношение сторон : 4:3
Частота кадров : 25,000 кадров/сек
Цветовое пространство : YUV
Субдискретизация насыщенности : 4:2:0
Битовая глубина : 8 бит
Тип развёртки : Прогрессивная
Метод сжатия : С потерями
Бит/(Пиксели*Кадры) : 0.253
Размер потока : 1,32 Гбайт (92%)
Библиотека кодирования : XviD 65

Аудио
Идентификатор : 1
Формат : AC-3
Формат/Информация : Audio Coding 3
Расширение режима : CM (complete main)
Параметр Endianness формата : Big
Идентификатор кодека : 2000
Продолжительность : 1 ч. 18 м.
Вид битрейта : Постоянный
Битрейт : 192 Кбит/сек
Каналы : 2 канала
Расположение каналов : Front: L R
Частота : 48,0 КГц
Битовая глубина : 16 бит
Метод сжатия : С потерями
Размер потока : 108 Мбайт (7%)
Выравнивание : Разделение по промежуткам
Продолжительность промежутка : 40 мс. (1,00 видеокадр)
Время предзагрузки промежутка : 500 мс.





   Похожие торренты   Торрент   Размер 
В этой теме нет новых непрочитанных сообщений. Пасхальная великая вечерня. Прямая трансляция из храма Христа Спасителя [эфир 15.04] (2012) SATRip

0 | 1

1.08 ГБ

В этой теме нет новых непрочитанных сообщений. Пасха Христова. Прямая трансляция Торжественного Пасхального богослужения из Храма Христа Спасителя (2015) SATRip от runetzone

62 | 3

2.35 ГБ

В этой теме нет новых непрочитанных сообщений. Пасха Христова 2011. Прямая трансляция Пасхального богослужения из Храма Христа Спасителя (2011) TVRip

0 | 2

2.61 ГБ

В этой теме нет новых непрочитанных сообщений. Финишная прямая / La ligne droite (2011) HDRip от Youtracker

5 | 3

744.55 МБ

В этой теме нет новых непрочитанных сообщений. Финишная прямая / La ligne droite (2011) HDRip-AVC от Youtracker

1 | 2

2.19 ГБ

В этой теме нет новых непрочитанных сообщений. Финишная прямая / La ligne droite (2011) DVD5 от Youtracker | лицензия

2 | 3

3.79 ГБ

В этой теме нет новых непрочитанных сообщений. Доктор Чужой / Dr. Alien (1989) DVDRip от Youtracker | A

1 | 8

1.46 ГБ




Вы не можете начинать темы
Вы не можете отвечать на сообщения
Вы не можете редактировать свои сообщения
Вы не можете удалять свои сообщения
Вы не можете добавлять вложения

Перейти:  
Для Мосгорсуда, Роскомнадзора и рекламодателей: mosgorsud-torrent[собачка]yandex.ru
 Вход
ppkBB3cker v.2 © 2008-2014 @ PPK
[ Time : 0.018s | 15 Queries | GZIP : Off ]

Торрент трекер RUTOR.IN, Не можете зайти на rutor.org? Какой новый адрес рутор? Какое зеркало рутор? Не работает rutor.org и зеркала? Тогда наш торрент специально для вас. Rutor.in неофициальное зеркало rutor. В случае если у Вас заблокирован rutor или вдруг Вы не можете на него зайти, то Вы без труда сможете скачать бесплатно и без рекламы последние новинки кино, игр, сериалов и прочего у нас, на Rutor.in. Не нужно использовать прокси, чтобы зайти на рутор, достаточно воспользоваться нашим ресурсом. Все новые фильмы, игры, сериалы, книги и музыка за 2013 и 2014 годы через торрент бесплатно. Скачивайте фильмы в хорошем качестве, игры для пк, xbox, playstation без регистрации. У нас вы найдете новые Зарубежные сериалы и Русские сериалы 2013, 2014, 2015 годов. Оставайтесь с нами, качайте любимые фильмы, игры, сериалы, книги и музыку.