img image001 image001 image001 image001 image001 image001 image001 image001 image001 image001 image001 image001 image001 image001 image001

Planets Sun Sun Sun
Статистика раздачи
Автор: Снежана | Размер: 4.96 ГБ | Добавлен: 24 июл 2013
Раздают: 9    Качают: 11
Скачать торрент
Скачать торрент
Описание торрента

СообщениеДобавлено: 24 июл 2013 

#77

Информация о фильме
Название: Бригада: Наследник
Год выхода: 2012
Жанр: Боевик, криминал
Режиссер: Денис Алексеев
В ролях: Иван Макаревич, Екатерина Гусева, Кирилл Нагиев, Владислав Демин, Александр Иншаков, Анна Попова, Валерий Золотухин, Игорь Жижикин, Юрий Чурсин, Наталия Гуслистая

О фильме: Фильм является идейным продолжением жизни героев телесериала «Бригада». Однако акцент смещен в историю сына Александра Белова — Ивана. Это Кино о современной России. О том, что у всех на устах: политике, коррупции, цинизме крупного бизнеса и спецслужб. О новом поколении, которое, узнав правду о нечистом бизнесе родителей, не идет по их стопам, а выбирает новый путь. Для них дороги понятия чести, любви и Родины. Герой, комфортно живший за границей, тем не менее, выбирает Россию (в отличие от сериала) и остается жить в ней, надеясь привнести эти идеалы в жизнь своих близких и страны в целом.



Страна: Россия
Студия: Independent Movie Company
Продолжительность: 01:46:11
Перевод: Не требуется [Лицензия]

Файл
Кодек: AVC
Качество: BDRip 720p
Видео: 1280x544, 24 fps, 5200 Kbps
Звук: DTS, 48 kHz, 6 ch, 1510 Kbps
Дополнительно: Сохранены оригинальные чаптеры как на Blu-Ray

General
Unique ID : 246298600539489460386265181219954538918 (0xB94B628F9EB85D48AEB5B9878DC6B9A6)
Complete name : F:Загрузки µTorrentBrigada_2.2012.BDRip.720p.mkv
Format : Matroska
Format version : Version 2
File size : 4.96 GiB
Duration : 1h 46mn
Overall bit rate : 6 692 Kbps
Movie name : HDCLUB present "Brigada 2 (2012)"
Encoded date : UTC 2012-12-28 06:15:16
Writing application : mkvmerge v5.6.0 ('Kenya Kane') built on May 27 2012 16:44:04
Writing library : libebml v1.2.3 + libmatroska v1.3.0

Video
ID : 1
Format : AVC
Format/Info : Advanced Video Codec
Format profile : High@L4.1
Format settings, CABAC : Yes
Format settings, ReFrames : 12 frames
Codec ID : V_MPEG4/ISO/AVC
Duration : 1h 46mn
Bit rate : 5 200 Kbps
Width : 1 280 pixels
Height : 544 pixels
Display aspect ratio : 2.35:1
Frame rate : 24.000 fps
Color space : YUV
Chroma subsampling : 4:2:0
Bit depth : 8 bits
Scan type : Progressive
Bits/(Pixel*Frame) : 0.311
Stream size : 3.74 GiB (75%)
Title : Brigada_2.2012.720p.Bluray.Rus.HDCLUB
Writing library : x264 core 129 r2230 1cffe9f
Encoding settings : cabac=1 / ref=12 / deblock=1:-3:-3 / analyse=0x3:0x133 / me=umh / subme=11 / psy=1 / psy_rd=1.00:0.00 / mixed_ref=1 / me_range=48 / chroma_me=1 / trellis=2 / 8x8dct=1 / cqm=0 / deadzone=21,11 / fast_pskip=0 / chroma_qp_offset=-2 / threads=12 / lookahead_threads=2 / sliced_threads=0 / nr=0 / decimate=1 / interlaced=0 / bluray_compat=0 / constrained_intra=0 / bframes=7 / b_pyramid=2 / b_adapt=2 / b_bias=0 / direct=3 / weightb=1 / open_gop=0 / weightp=2 / keyint=250 / keyint_min=23 / scenecut=40 / intra_refresh=0 / rc_lookahead=60 / rc=2pass / mbtree=0 / bitrate=5200 / ratetol=1.0 / qcomp=0.60 / qpmin=0 / qpmax=69 / qpstep=4 / cplxblur=20.0 / qblur=0.5 / vbv_maxrate=50000 / vbv_bufsize=62500 / nal_hrd=none / ip_ratio=1.40 / pb_ratio=1.30 / aq=1:0.80
Language : Russian
Default : Yes
Forced : Yes

Audio
ID : 2
Format : DTS
Format/Info : Digital Theater Systems
Codec ID : A_DTS
Duration : 1h 46mn
Bit rate mode : Constant
Bit rate : 1 510 Kbps
Channel(s) : 6 channels
Channel positions : Front: L C R, Side: L R, LFE
Sampling rate : 48.0 KHz
Bit depth : 16 bits
Compression mode : Lossy
Stream size : 1.12 GiB (23%)
Title : DTS 5.1 @ 1509 kbps - Original [Core DTS-HD MA]
Language : Russian
Default : Yes
Forced : Yes

Menu
00:00:00.000 : :Chapter 1
00:08:31.583 : :Chapter 2
00:12:24.125 : :Chapter 3
00:17:08.375 : :Chapter 4
00:25:08.416 : :Chapter 5
00:30:55.833 : :Chapter 6
00:42:03.000 : :Chapter 7
00:54:59.625 : :Chapter 8
01:03:32.333 : :Chapter 9
01:11:20.125 : :Chapter 10
01:17:54.916 : :Chapter 11
01:22:47.458 : :Chapter 12
01:27:43.333 : :Chapter 13
01:36:43.125 : :Chapter 14
01:42:18.041 : :Chapter 15



Релиз от:



   Похожие торренты   Торрент   Размер 
В этой теме нет новых непрочитанных сообщений. Бригада: Наследник (2012) BDRip | Лицензия

76 | 6

1.45 ГБ

В этой теме нет новых непрочитанных сообщений. Бригада: Наследник (2012) BDRip-AVC от potroks | Лицензия

45 | 6

1.46 ГБ

В этой теме нет новых непрочитанных сообщений. Бригада: Наследник (2012) BDRip от HQCLUB | Лицензия

33 | 6

2 ГБ

В этой теме нет новых непрочитанных сообщений. Бригада: Наследник (2012) DVDRip | Лицензия

35 | 5

701.98 МБ

В этой теме нет новых непрочитанных сообщений. Бригада: Наследник (2012) DVDRip-AVC | Лицензия

137 | 15

2.05 ГБ

В этой теме нет новых непрочитанных сообщений. Бригада: Наследник (2012) DVDRip | Лицензия

23 | 5

1.37 ГБ

В этой теме нет новых непрочитанных сообщений. Бригада: Наследник (2012) HDRip | Лицензия

9 | 10

748.48 МБ




Вы не можете начинать темы
Вы не можете отвечать на сообщения
Вы не можете редактировать свои сообщения
Вы не можете удалять свои сообщения
Вы не можете добавлять вложения

Перейти:  
Для Мосгорсуда, Роскомнадзора и рекламодателей: mosgorsud-torrent[собачка]yandex.ru
 Вход
ppkBB3cker v.2 © 2008-2014 @ PPK
[ Time : 0.508s | 14 Queries | GZIP : Off ]

Торрент трекер RUTOR.IN, Не можете зайти на rutor.org? Какой новый адрес рутор? Какое зеркало рутор? Не работает rutor.org и зеркала? Тогда наш торрент специально для вас. Rutor.in неофициальное зеркало rutor. В случае если у Вас заблокирован rutor или вдруг Вы не можете на него зайти, то Вы без труда сможете скачать бесплатно и без рекламы последние новинки кино, игр, сериалов и прочего у нас, на Rutor.in. Не нужно использовать прокси, чтобы зайти на рутор, достаточно воспользоваться нашим ресурсом. Все новые фильмы, игры, сериалы, книги и музыка за 2013 и 2014 годы через торрент бесплатно. Скачивайте фильмы в хорошем качестве, игры для пк, xbox, playstation без регистрации. У нас вы найдете новые Зарубежные сериалы и Русские сериалы 2013, 2014, 2015 годов. Оставайтесь с нами, качайте любимые фильмы, игры, сериалы, книги и музыку.