img image001 image001 image001 image001 image001 image001 image001 image001 image001 image001 image001 image001 image001 image001 image001

Planets Sun Sun Sun
Статистика раздачи
Автор: Снежана | Размер: 1.46 ГБ | Добавлен: 24 июл 2013
Раздают: 332    Качают: 8
Скачать торрент
Скачать торрент
Описание торрента

СообщениеДобавлено: 24 июл 2013 


Информация о фильме
Название: Последняя сказка Риты
Год выхода: 2012
Жанр: Фэнтези, Драма, Детектив
Режиссер: Рената Литвинова
В ролях: Митя Борисов, Лев Данилкин, Сергей Дебижев, Татьяна Друбич, Альбина Евтушевская, Алиса Хазанова, Николай Хомерики, Ольга Кузина, Рената Литвинова, Сати Спивакова
О фильме: Три женщины, три состояния души, три вечные темы: любовь, смерть и поиски счастья. И один ангел смерти, сопровождающий в иной мир души тех, кто способен любить. История, разворачивающаяся на грани реальности и запределья.


Выпущено: Россия / Запределье
Продолжительность: 01:37:04
Перевод: Не требуется [Русский]
Автор рипа: MysTeRy
Файл
Кодек: MPEG-4 AVC/H.264
Качество: DVDRip-AVC
Видео: 1702 Кбит/сек, 720x576@1024x576
Звук: AC3, 448 Кбит/сек (6 ch)

Общее
Уникальный идентификатор : 202023932042203194229004044975135050084 (0x97FC64DE8390DF9986D5E14D56C0C964)
Полное имя : Poslednyaya.skazka.Rityi.2012.O.x264.DVDRip-MysTeRy.mkv
Формат : Matroska
Версия формата : Version 4 / Version 2
Размер файла : 1,46 Гбайт
Продолжительность : 1 ч. 37 м.
Общий поток : 2149 Кбит/сек
Название фильма : Последняя сказка Риты-MysTeRy
Дата кодирования : UTC 2010-02-22 21:41:31
Программа кодирования : mkvmerge v5.9.0 ('On The Loose') built on Dec 9 2012 15:37:01
Библиотека кодирования : libebml v1.3.0 + libmatroska v1.4.0
Видео
Идентификатор : 1
Формат : AVC
Формат/Информация : Advanced Video Codec
Профиль формата : High@L4.1
Параметр CABAC формата : Да
Параметр ReFrames формата : 12 кадров
Идентификатор кодека : V_MPEG4/ISO/AVC
Продолжительность : 1 ч. 37 м.
Битрейт : 1702 Кбит/сек
Ширина : 720 пикселей
Высота : 576 пикселей
Соотношение сторон : 16:9
Частота кадров : 25,000 кадров/сек
Стандарт вещания : PAL
Цветовое пространство : YUV
Субдискретизация насыщенности : 4:2:0
Битовая глубина : 8 бит
Тип развёртки : Прогрессивная
Бит/(Пиксели*Кадры) : 0.164
Размер потока : 1,12 Гбайт (77%)
Заголовок : ENCODER........: MysTeRy
Библиотека кодирования : x264 core 125 r2208 d9d2288
Настройки программы : cabac=1 / ref=12 / deblock=1:-2:-1 / analyse=0x3:0x113 / me=umh / subme=10 / psy=1 / psy_rd=1.00:0.10 / mixed_ref=1 / me_range=32 / chroma_me=1 / trellis=2 / 8x8dct=1 / cqm=0 / deadzone=21,11 / fast_pskip=1 / chroma_qp_offset=-3 / threads=12 / lookahead_threads=2 / sliced_threads=0 / nr=0 / decimate=1 / interlaced=0 / bluray_compat=0 / constrained_intra=0 / bframes=8 / b_pyramid=2 / b_adapt=2 / b_bias=0 / direct=3 / weightb=1 / open_gop=0 / weightp=2 / keyint=250 / keyint_min=25 / scenecut=40 / intra_refresh=0 / rc_lookahead=40 / rc=2pass / mbtree=0 / bitrate=1702 / ratetol=1.0 / qcomp=0.70 / qpmin=10 / qpmax=69 / qpstep=4 / cplxblur=20.0 / qblur=0.5 / vbv_maxrate=50000 / vbv_bufsize=61400 / nal_hrd=none / ip_ratio=1.40 / pb_ratio=1.30 / aq=1:1.00
Язык : Russian
Default : Да
Forced : Нет
Основные цвета : BT.709-5, BT.1361, IEC 61966-2-4, SMPTE RP177
Характеристики трансфера : BT.709-5, BT.1361
Коэффициенты матрицы : BT.709-5, BT.1361, IEC 61966-2-4 709, SMPTE RP177
Аудио
Идентификатор : 2
Формат : AC-3
Формат/Информация : Audio Coding 3
Расширение режима : CM (complete main)
Идентификатор кодека : A_AC3
Продолжительность : 1 ч. 37 м.
Вид битрейта : Постоянный
Битрейт : 448 Кбит/сек
Каналы : 6 каналов
Расположение каналов : Front: L C R, Side: L R, LFE
Частота : 48,0 КГц
Битовая глубина : 16 бит
Метод сжатия : С потерями
Размер потока : 311 Мбайт (21%)
Заголовок : Original
Язык : Russian
Default : Да
Forced : Нет
Меню
00:00:00.000 : ru:Chapter 1
00:07:27.447 : ru:Chapter 2
00:13:31.686 : ru:Chapter 3
00:21:22.490 : ru:Chapter 4
00:26:48.106 : ru:Chapter 5
00:31:51.201 : ru:Chapter 6
00:41:28.403 : ru:Chapter 7
00:49:33.429 : ru:Chapter 8
00:54:10.414 : ru:Chapter 9
01:00:35.006 : ru:Chapter 10
01:08:09.919 : ru:Chapter 11
01:15:23.352 : ru:Chapter 12
01:23:57.741 : ru:Chapter 13


x264 [info]: frame I:826 Avg QP:17.50 size: 44840
x264 [info]: frame P:31893 Avg QP:18.52 size: 15893
x264 [info]: frame B:112883 Avg QP:19.61 size: 6143
x264 [info]: consecutive B-frames: 1.4% 1.8% 10.6% 23.7% 12.3% 46.9% 2.2% 0.7% 0.3%





   Похожие торренты   Торрент   Размер 
В этой теме нет новых непрочитанных сообщений. Последняя сказка Риты (2012) DVDRip от Youtracker | Лицензия

170 | 4

1.46 ГБ

В этой теме нет новых непрочитанных сообщений. Последняя сказка Риты (2012) DVDRip от Youtracker | Лицензия

35 | 5

744.88 МБ

В этой теме нет новых непрочитанных сообщений. Последняя сказка Риты (2012) DVD9

12 | 3

6.13 ГБ

В этой теме нет новых непрочитанных сообщений. Последняя сказка Риты (2012) HDTV 1080i от MediaClub

70 | 9

5.88 ГБ

В этой теме нет новых непрочитанных сообщений. Земфира - Последняя Сказка Риты [Original SoundTrack] (2012) MP3

15 | 2

68.08 МБ

В этой теме нет новых непрочитанных сообщений. Обучение Риты (Воспитание Риты, Образование Риты, Обучая Риту) / Educating Rita (1983) DVDRip от Маши

10 | 2

1.44 ГБ

В этой теме нет новых непрочитанных сообщений. Последняя роль Риты (2012) DVB

4 | 2

4.75 ГБ




Вы не можете начинать темы
Вы не можете отвечать на сообщения
Вы не можете редактировать свои сообщения
Вы не можете удалять свои сообщения
Вы не можете добавлять вложения

Перейти:  
Для Мосгорсуда, Роскомнадзора и рекламодателей: mosgorsud-torrent[собачка]yandex.ru
 Вход
ppkBB3cker v.2 © 2008-2014 @ PPK
[ Time : 0.024s | 15 Queries | GZIP : Off ]

Торрент трекер RUTOR.IN, Не можете зайти на rutor.org? Какой новый адрес рутор? Какое зеркало рутор? Не работает rutor.org и зеркала? Тогда наш торрент специально для вас. Rutor.in неофициальное зеркало rutor. В случае если у Вас заблокирован rutor или вдруг Вы не можете на него зайти, то Вы без труда сможете скачать бесплатно и без рекламы последние новинки кино, игр, сериалов и прочего у нас, на Rutor.in. Не нужно использовать прокси, чтобы зайти на рутор, достаточно воспользоваться нашим ресурсом. Все новые фильмы, игры, сериалы, книги и музыка за 2013 и 2014 годы через торрент бесплатно. Скачивайте фильмы в хорошем качестве, игры для пк, xbox, playstation без регистрации. У нас вы найдете новые Зарубежные сериалы и Русские сериалы 2013, 2014, 2015 годов. Оставайтесь с нами, качайте любимые фильмы, игры, сериалы, книги и музыку.
cron