img image001 image001 image001 image001 image001 image001 image001 image001 image001 image001 image001 image001 image001 image001 image001

Planets Sun Sun Sun
Статистика раздачи
Автор: Снежана | Размер: 698.05 МБ | Добавлен: 24 июл 2013
Раздают: 9    Качают: 5
Скачать торрент
Скачать торрент
Описание торрента

СообщениеДобавлено: 24 июл 2013 

#77

Название: Бригада: Наследник
Год выхода: 2012
Жанр: Боевик, криминал
Режиссер: Денис Алексеев
В ролях: Иван Макаревич, Екатерина Гусева, Кирилл Нагиев, Владислав Демин, Александр Иншаков, Анна Попова, Валерий Золотухин, Игорь Жижикин, Юрий Чурсин, Наталия Гуслистая

Фильм является идейным продолжением жизни героев телесериала «Бригада». Однако акцент смещен в историю сына Александра Белова — Ивана. Это Кино о современной России. О том, что у всех на устах: политике, коррупции, цинизме крупного бизнеса и спецслужб. О новом поколении, которое, узнав правду о нечистом бизнесе родителей, не идет по их стопам, а выбирает новый путь. Для них дороги понятия чести, любви и Родины. Герой, комфортно живший за границей, тем не менее, выбирает Россию (в отличие от сериала) и остается жить в ней, надеясь привнести эти идеалы в жизнь своих близких и страны в целом.



Выпущено: Россия, Independent Movie Company
Продолжительность: 01:41:48
Перевод: Оригинал [Лицензия]
Формат: MKV
Качество: BDRip (исходник: Blu-Ray)
Видео: 720x304, 829kbps, 24fps, AVC
Звук: AC3 DolbyProLogic II LFE, 128kbps, 2.1ch

Релиз от:

Нашумевший в начале 2000-х сериал «Бригада» нашел продолжение сегодня в виде современного и не очень качественного творения Дениса Алексеева и Александра Иншакова. Обо всем по порядку.

В основе сюжета лежит история сына Саши Белого (Иван Макаревич), который по достижении совершеннолетия вступает в права наследства (а оно весьма внушительное). Ивану нужно продать землю на Рублевке в Москве, чтобы помочь другу погасить долги. Отправляясь в Россию, Иван и его друг Фил (знакомое имя, не правда ли?) — сын американского сенатора и русской переводчицы (Кирилл Нагиев) не подозревают, что криминальное прошлое отца до сих пор не забыто, и что за его наследством стоит очередь из российских «бандитов». Друзьям придется пережить не мало погонь, убийств, перестрелок и прочей атрибутики «Бригады», чтобы отвоевать то, что принадлежит по праву семье Беловых. На фоне этого также разворачивается любовная линия между Ваней и Лерой — дочерью крупного КГБшника (Игорь Жижикин) (кажется именно так это анонсировали в фильме).

Актерский состав достаточно неплох для данного уровня (а я все-таки считаю, что это не самый плохой русский фильм) картины. Приятно было снова увидеть на экране Екатерину Гусеву, которая всегда мне нравилась, как актриса. Юрий Чурсин тоже замечательно сыграл Бессо. Играть мерзавцев — это в его стиле. Кирилл Нагиев, Анна Попова и Иван Макаревич конечно местами выглядели слишком наигранно, но талант у всей троицы определенно есть. Александр Иншаков же показал себя просто русским Рэмбо, который работает рефери на ринге, а периодически вступает в перестрелки с криминальными авторитетами.

Вообщем, сюжет фильма оставляет желать лучшего. Очень много глупых и наигранных сцен. Беготня с пистолетами, игра в бандитов — это все интересно конечно, но осталось, наверно, в 90-х — начале 2000-х. Романтика в фильме тоже весьма банальна и наигранна. Даже не сравнивая «Наследника» с классической «Бригадой», а рассматривая это творение как более или менее отдельный, самостоятельный фильм, хорошим его не назовешь.

Судя по концовке, которая тоже никак не вяжется с действиями нормальных людей, еще одно продолжение не обойдет нас стороной. Не знаю, может быть новому поколению российской молодежи, которые не видели «Бригаду» в 2000-х и понравится этот новый фильм и они полюбят эту компанию, за действиями которой будут наблюдать и дальше… Но для людей, которые наблюдали за Сашей Белым и его друзьями, разумеется, сюжет фильма покажется извращенным и нелепым. Итак, вход в кинозал только для молодого (лет 16) поколения!

Format : Matroska
Format version : Version 2
File size : 698 MiB
Duration : 1h 41mn
Overall bit rate : 959 Kbps
Movie name : Бригада: Наследник (2012) BDRip-AVC от TORRENT-45
Encoded date : UTC 2012-12-30 11:05:41
Writing application : mkvmerge v5.8.0 ('No Sleep / Pillow') built on Sep 2 2012 15:37:04
Writing library : libebml v1.2.3 + libmatroska v1.3.0

Video
ID : 1
Format : AVC
Format/Info : Advanced Video Codec
Format profile : High@L4.1
Format settings, CABAC : Yes
Format settings, ReFrames : 5 frames
Codec ID : V_MPEG4/ISO/AVC
Duration : 1h 41mn
Bit rate : 829 Kbps
Width : 720 pixels
Height : 304 pixels
Display aspect ratio : 2.35:1
Frame rate mode : Constant
Frame rate : 24.000 fps
Color space : YUV
Chroma subsampling : 4:2:0
Bit depth : 8 bits
Scan type : Progressive
Bits/(Pixel*Frame) : 0.158
Stream size : 591 MiB (85%)
Title : Бригада: Наследник (2012) BDRip-AVC от TORRENT-45
Writing library : x264 core 125 r2208 d9d2288
Encoding settings : cabac=1 / ref=5 / deblock=1:-3:-3 / analyse=0x3:0x113 / me=umh / subme=9 / psy=1 / psy_rd=1.00:0.00 / mixed_ref=0 / me_range=32 / chroma_me=1 / trellis=1 / 8x8dct=1 / cqm=0 / deadzone=21,11 / fast_pskip=1 / chroma_qp_offset=-2 / threads=6 / lookahead_threads=1 / sliced_threads=0 / nr=0 / decimate=1 / interlaced=0 / bluray_compat=0 / constrained_intra=0 / bframes=6 / b_pyramid=2 / b_adapt=2 / b_bias=0 / direct=3 / weightb=1 / open_gop=0 / weightp=2 / keyint=240 / keyint_min=23 / scenecut=40 / intra_refresh=0 / rc_lookahead=50 / rc=2pass / mbtree=1 / bitrate=829 / ratetol=1.0 / qcomp=0.60 / qpmin=0 / qpmax=69 / qpstep=4 / cplxblur=20.0 / qblur=0.5 / ip_ratio=1.40 / aq=1:1.00
Language : Russian
Default : Yes
Forced : No

Audio
ID : 2
Format : AC-3
Format/Info : Audio Coding 3
Mode extension : CM (complete main)
Format settings, Endianness : Big
Codec ID : A_AC3
Duration : 1h 41mn
Bit rate mode : Constant
Bit rate : 128 Kbps
Channel(s) : 2 channels
Channel positions : Front: L R
Sampling rate : 48.0 KHz
Bit depth : 16 bits
Compression mode : Lossy
Stream size : 93.2 MiB (13%)
Title : Original AC3 DolbyProLogic II LFE, 128kbps, 2.1ch
Language : Russian
Default : Yes
Forced : No




   Похожие торренты   Торрент   Размер 
В этой теме нет новых непрочитанных сообщений. Бригада: Наследник (2012) HDRip от Torrent-Xzona | КПК

12 | 6

349.22 МБ

В этой теме нет новых непрочитанных сообщений. Бригада: Наследник (2012) BDRip | Лицензия

76 | 6

1.45 ГБ

В этой теме нет новых непрочитанных сообщений. Бригада: Наследник (2012) BDRip-AVC | iPad

11 | 4

1.96 ГБ

В этой теме нет новых непрочитанных сообщений. Бригада: Наследник (2012) BDRip-AVC от potroks | Лицензия

45 | 6

1.46 ГБ

В этой теме нет новых непрочитанных сообщений. Бригада: Наследник (2012) BDRip 720p | Лицензия

9 | 11

4.96 ГБ

В этой теме нет новых непрочитанных сообщений. Бригада: Наследник (2012) BDRip от HQCLUB | Лицензия

33 | 6

2 ГБ

В этой теме нет новых непрочитанных сообщений. Бригада. Наследник (2012) Blu-Ray 1080p

5 | 8

17.43 ГБ




Вы не можете начинать темы
Вы не можете отвечать на сообщения
Вы не можете редактировать свои сообщения
Вы не можете удалять свои сообщения
Вы не можете добавлять вложения

Перейти:  
Для Мосгорсуда, Роскомнадзора и рекламодателей: mosgorsud-torrent[собачка]yandex.ru
 Вход
ppkBB3cker v.2 © 2008-2014 @ PPK
[ Time : 0.045s | 16 Queries | GZIP : Off ]

Торрент трекер RUTOR.IN, Не можете зайти на rutor.org? Какой новый адрес рутор? Какое зеркало рутор? Не работает rutor.org и зеркала? Тогда наш торрент специально для вас. Rutor.in неофициальное зеркало rutor. В случае если у Вас заблокирован rutor или вдруг Вы не можете на него зайти, то Вы без труда сможете скачать бесплатно и без рекламы последние новинки кино, игр, сериалов и прочего у нас, на Rutor.in. Не нужно использовать прокси, чтобы зайти на рутор, достаточно воспользоваться нашим ресурсом. Все новые фильмы, игры, сериалы, книги и музыка за 2013 и 2014 годы через торрент бесплатно. Скачивайте фильмы в хорошем качестве, игры для пк, xbox, playstation без регистрации. У нас вы найдете новые Зарубежные сериалы и Русские сериалы 2013, 2014, 2015 годов. Оставайтесь с нами, качайте любимые фильмы, игры, сериалы, книги и музыку.