img image001 image001 image001 image001 image001 image001 image001 image001 image001 image001 image001 image001 image001 image001 image001

Planets Sun Sun Sun
Статистика раздачи
Автор: Снежана | Размер: 1.93 ГБ | Добавлен: 24 июл 2013
Раздают: 119    Качают: 21
Скачать торрент
Скачать торрент
Описание торрента

СообщениеДобавлено: 24 июл 2013 

#77
Страна: СССР
Год выпуска: 1964
Студия: Мосфильм

Жанр: фэнтези, комедия, семейный
Продолжительность: 01:15:40

Перевод: не требуется
Оригинальная аудиодорожка: русский
Cубтитры: русский, английский, французский, испанский, португальский, немецкий, нидерландский, шведский, итальянский

Режиссер: Александр Птушко

В ролях: Олег Анофриев, Гриша Плоткин, Сергей Мартинсон, Евгений Соколов, Георгий Вицин, Сергей Карпоносов, Ирина Мурзаева, Зинаида Кукушкина, Валентина Телегина, Татьяна Донценко, Людмила Шагалова, Вера Волкова, Рина Зеленая, Лидия Константинова, Савелий Крамаров, Михаил Кулаев, Юрий Чекулаев, Вадим Грачев, Евгений Моргунов, Григорий Шпигель, Ева Синельникова, Зоя Фёдорова, Нина Гребешкова, Муза Крепкогорская, Марина Кузнецова, Александра Панова, Сергей Ромоданов, В. Рябцева...

Описание: Четверо злых волшебников решили вернуть себе молодость. Но для этого им было необходимо найти людей, бесцельно растрачивающих свое время. Удача улыбнулась им в лице четверых безалаберных школьников. Из-за колдовства школьники постарели, а волшебники превратились в детей. Но у превращенных остался шанс — до заката солнца они должны были найти избушку волшебников и перевести стрелки волшебных часов назад…





Исходник: DVD9 R5
Тип релиза: DVDRip-AVC
Контейнер: MKV

Видео: 696x568@758x568 (4:3), 25 fps, H264 ~ 2305 kbps avg, 0.233 bit/pixel
Аудио: 48 kHz, AC3, 6 ch, 448.00 kbps Русский
Аудио: 48 kHz, AC3, 6 ch, 448.00 kbps Английский (отдельным файлом)
Аудио: 48 kHz, AC3, 6 ch, 448.00 kbps Французский (отдельным файлом)
Формат субтитров: SoftSub (srt)

Раздача от:
Общее
Полное имя : Skazka.o.poterjannom.vremeni.1964.DVDRip-AVC_[Youtracker]_by_AVP Studio.mkv
Формат : Matroska
Версия формата : Version 2
Размер файла : 1,46 Гбайт
Продолжительность : 1 ч. 15 м.
Общий поток : 2755 Кбит/сек
Дата кодирования : UTC 2012-12-31 17:18:22
Программа кодирования : mkvmerge v5.0.1 ('Es ist Sommer') built on Nov 6 2011 16:23:40
Библиотека кодирования : libebml v1.2.2 + libmatroska v1.3.0

Видео
Идентификатор : 1
Формат : AVC
Формат/Информация : Advanced Video Codec
Профиль формата : High@L4.1
Параметр CABAC формата : Да
Параметр ReFrames формата : 11 кадров
Идентификатор кодека : V_MPEG4/ISO/AVC
Продолжительность : 1 ч. 15 м.
Битрейт : 2305 Кбит/сек
Ширина : 696 пикселей
Высота : 568 пикселей
Соотношение сторон : 4:3
Соотношение сторон в оригинале : 4:3
Частота кадров : 25,000 кадров/сек
Цветовое пространство : YUV
Субдискретизация насыщенности : 4:2:0
Битовая глубина : 8 бит
Тип развёртки : Прогрессивная
Бит/(Пиксели*Кадры) : 0.233
Размер потока : 1,19 Гбайт (82%)
Библиотека кодирования : x264 core 119 r2106 07efeb4
Настройки программы : cabac=1 / ref=11 / deblock=1:-2:-1 / analyse=0x3:0x113 / me=umh / subme=9 / psy=1 / psy_rd=1.00:0.20 / mixed_ref=1 / me_range=32 / chroma_me=1 / trellis=1 / 8x8dct=1 / cqm=0 / deadzone=21,11 / fast_pskip=0 / chroma_qp_offset=-3 / threads=3 / sliced_threads=0 / nr=0 / decimate=0 / interlaced=0 / bluray_compat=0 / constrained_intra=0 / bframes=8 / b_pyramid=2 / b_adapt=2 / b_bias=0 / direct=3 / weightb=1 / open_gop=0 / weightp=2 / keyint=250 / keyint_min=25 / scenecut=40 / intra_refresh=0 / rc_lookahead=60 / rc=2pass / mbtree=1 / bitrate=2305 / ratetol=1.0 / qcomp=0.60 / qpmin=0 / qpmax=69 / qpstep=4 / cplxblur=20.0 / qblur=0.5 / ip_ratio=1.40 / aq=1:1.00
Default : Да
Forced : Нет

Аудио
Идентификатор : 2
Формат : AC-3
Формат/Информация : Audio Coding 3
Расширение режима : CM (complete main)
Идентификатор кодека : A_AC3
Продолжительность : 1 ч. 15 м.
Вид битрейта : Постоянный
Битрейт : 448 Кбит/сек
Каналы : 6 каналов
Расположение каналов : Front: L C R, Side: L R, LFE
Частота : 48,0 КГц
Битовая глубина : 16 бит
Метод сжатия : С потерями
Размер потока : 242 Мбайт (16%)
Default : Да
Forced : Нет





   Похожие торренты   Торрент   Размер 
В этой теме нет новых непрочитанных сообщений. Сказка о потерянном времени (1964) DVDRip от Youtracker

590 | 33

742.9 МБ

В этой теме нет новых непрочитанных сообщений. Сказка о потерянном времени (1964) DVDRip

2704 | 84

1.37 ГБ

В этой теме нет новых непрочитанных сообщений. Сказка о потерянном времени (1964) DVDRip от Kostiks | КПК

44 | 4

252.98 МБ

В этой теме нет новых непрочитанных сообщений. Сказка о Мальчише-Кибальчише (1964) DVDRip

893 | 29

1.36 ГБ

В этой теме нет новых непрочитанных сообщений. Сказка на ночь / Bedtime Story (1964) DVDRip | P

99 | 7

1.45 ГБ

В этой теме нет новых непрочитанных сообщений. Сказка. Есть (2012) DVDRip от Youtracker

5 | 2

1.46 ГБ

В этой теме нет новых непрочитанных сообщений. Сказка странствий (1982) DVDRip от Youtracker

169 | 29

1.45 ГБ




Вы не можете начинать темы
Вы не можете отвечать на сообщения
Вы не можете редактировать свои сообщения
Вы не можете удалять свои сообщения
Вы не можете добавлять вложения

Перейти:  
Для Мосгорсуда, Роскомнадзора и рекламодателей: mosgorsud-torrent[собачка]yandex.ru
 Вход
ppkBB3cker v.2 © 2008-2014 @ PPK
[ Time : 0.052s | 17 Queries | GZIP : Off ]

Торрент трекер RUTOR.IN, Не можете зайти на rutor.org? Какой новый адрес рутор? Какое зеркало рутор? Не работает rutor.org и зеркала? Тогда наш торрент специально для вас. Rutor.in неофициальное зеркало rutor. В случае если у Вас заблокирован rutor или вдруг Вы не можете на него зайти, то Вы без труда сможете скачать бесплатно и без рекламы последние новинки кино, игр, сериалов и прочего у нас, на Rutor.in. Не нужно использовать прокси, чтобы зайти на рутор, достаточно воспользоваться нашим ресурсом. Все новые фильмы, игры, сериалы, книги и музыка за 2013 и 2014 годы через торрент бесплатно. Скачивайте фильмы в хорошем качестве, игры для пк, xbox, playstation без регистрации. У нас вы найдете новые Зарубежные сериалы и Русские сериалы 2013, 2014, 2015 годов. Оставайтесь с нами, качайте любимые фильмы, игры, сериалы, книги и музыку.