img image001 image001 image001 image001 image001 image001 image001 image001 image001 image001 image001 image001 image001 image001 image001

Planets Sun Sun Sun
Статистика раздачи
Автор: Снежана | Размер: 742.9 МБ | Добавлен: 24 июл 2013
Раздают: 590    Качают: 33
Скачать торрент
Скачать торрент
Описание торрента

СообщениеДобавлено: 24 июл 2013 

#77
Страна: СССР
Год выпуска: 1964
Студия: Мосфильм

Жанр: фэнтези, комедия, семейный
Продолжительность: 01:15:40

Перевод: не требуется
Оригинальная аудиодорожка: русский
Cубтитры: нет

Режиссер: Александр Птушко

В ролях: Олег Анофриев, Гриша Плоткин, Сергей Мартинсон, Евгений Соколов, Георгий Вицин, Сергей Карпоносов, Ирина Мурзаева, Зинаида Кукушкина, Валентина Телегина, Татьяна Донценко, Людмила Шагалова, Вера Волкова, Рина Зеленая, Лидия Константинова, Савелий Крамаров, Михаил Кулаев, Юрий Чекулаев, Вадим Грачев, Евгений Моргунов, Григорий Шпигель, Ева Синельникова, Зоя Фёдорова, Нина Гребешкова, Муза Крепкогорская, Марина Кузнецова, Александра Панова, Сергей Ромоданов, В. Рябцева...

Описание: Четверо злых волшебников решили вернуть себе молодость. Но для этого им было необходимо найти людей, бесцельно растрачивающих свое время. Удача улыбнулась им в лице четверых безалаберных школьников. Из-за колдовства школьники постарели, а волшебники превратились в детей. Но у превращенных остался шанс — до заката солнца они должны были найти избушку волшебников и перевести стрелки волшебных часов назад…





Исходник: DVD9 R5
Тип релиза: DVDRip
Контейнер: AVI

Видео: 688x528 (4:3), 25 fps, XviD ~ 1235 kbps avg, 0.136 bit/pixel
Аудио: 48 kHz, MP3, 2 ch, 128.00 kbps

Раздача от:
Общее
Полное имя : Skazka.o.poterjannom.vremeni.1964.DVDRip_[Youtracker]_by_AVP Studio.avi
Формат : AVI
Формат/Информация : Audio Video Interleave
Размер файла : 743 Мбайт
Продолжительность : 1 ч. 15 м.
Общий поток : 1373 Кбит/сек
Программа кодирования : VirtualDubMod 1.5.10.3 | www.virtualdub-fr.org || (build 2550/release)
Библиотека кодирования : VirtualDubMod build 2550/release

Видео
Идентификатор : 0
Формат : MPEG-4 Visual
Профиль формата : Advanced Simple@L5
Параметр BVOP формата : 1
Параметр QPel формата : Нет
Параметр GMC формата : Без точки перехода
Параметр матрицы формата : Выборочная
Идентификатор кодека : XVID
Идентификатор кодека/Подсказка : XviD
Продолжительность : 1 ч. 15 м.
Битрейт : 1235 Кбит/сек
Ширина : 688 пикселей
Высота : 528 пикселей
Соотношение сторон : 4:3
Частота кадров : 25,000 кадров/сек
Цветовое пространство : YUV
Субдискретизация насыщенности : 4:2:0
Битовая глубина : 8 бит
Тип развёртки : Прогрессивная
Метод сжатия : С потерями
Бит/(Пиксели*Кадры) : 0.136
Размер потока : 668 Мбайт (90%)
Библиотека кодирования : XviD 65

Аудио
Идентификатор : 1
Формат : MPEG Audio
Версия формата : Version 1
Профиль формата : Layer 3
Идентификатор кодека : 55
Идентификатор кодека/Подсказка : MP3
Продолжительность : 1 ч. 15 м.
Вид битрейта : Постоянный
Битрейт : 128 Кбит/сек
Каналы : 2 канала
Частота : 48,0 КГц
Метод сжатия : С потерями
Размер потока : 69,3 Мбайт (9%)
Выравнивание : Соединение по промежуткам
Продолжительность промежутка : 40 мс. (1,00 видеокадр)
Время предзагрузки промежутка : 504 мс.
Библиотека кодирования : L3.99r
Настройки программы : -m s -V 4 -q 2 -lowpass 17 -b 128





   Похожие торренты   Торрент   Размер 
В этой теме нет новых непрочитанных сообщений. Сказка о потерянном времени (1964) DVDRip-AVC от Youtracker

119 | 21

1.93 ГБ

В этой теме нет новых непрочитанных сообщений. Сказка о потерянном времени (1964) DVDRip

2704 | 84

1.37 ГБ

В этой теме нет новых непрочитанных сообщений. Сказка о потерянном времени (1964) DVDRip от Kostiks | КПК

44 | 4

252.98 МБ

В этой теме нет новых непрочитанных сообщений. Сказка о Мальчише-Кибальчише (1964) DVDRip

893 | 29

1.36 ГБ

В этой теме нет новых непрочитанных сообщений. Сказка на ночь / Bedtime Story (1964) DVDRip | P

26 | 6

1.45 ГБ

В этой теме нет новых непрочитанных сообщений. Сказка странствий (1982) DVDRip от Youtracker

169 | 29

1.45 ГБ

В этой теме нет новых непрочитанных сообщений. Сказка. Есть (2012) DVDRip от Youtracker

5 | 2

1.46 ГБ




Вы не можете начинать темы
Вы не можете отвечать на сообщения
Вы не можете редактировать свои сообщения
Вы не можете удалять свои сообщения
Вы не можете добавлять вложения

Перейти:  
Для Мосгорсуда, Роскомнадзора и рекламодателей: mosgorsud-torrent[собачка]yandex.ru
 Вход
ppkBB3cker v.2 © 2008-2014 @ PPK
[ Time : 0.082s | 14 Queries | GZIP : Off ]

Торрент трекер RUTOR.IN, Не можете зайти на rutor.org? Какой новый адрес рутор? Какое зеркало рутор? Не работает rutor.org и зеркала? Тогда наш торрент специально для вас. Rutor.in неофициальное зеркало rutor. В случае если у Вас заблокирован rutor или вдруг Вы не можете на него зайти, то Вы без труда сможете скачать бесплатно и без рекламы последние новинки кино, игр, сериалов и прочего у нас, на Rutor.in. Не нужно использовать прокси, чтобы зайти на рутор, достаточно воспользоваться нашим ресурсом. Все новые фильмы, игры, сериалы, книги и музыка за 2013 и 2014 годы через торрент бесплатно. Скачивайте фильмы в хорошем качестве, игры для пк, xbox, playstation без регистрации. У нас вы найдете новые Зарубежные сериалы и Русские сериалы 2013, 2014, 2015 годов. Оставайтесь с нами, качайте любимые фильмы, игры, сериалы, книги и музыку.