img image001 image001 image001 image001 image001 image001 image001 image001 image001 image001 image001 image001 image001 image001 image001

Planets Sun Sun Sun
Статистика раздачи
Автор: Снежана | Размер: 5 ГБ | Добавлен: 24 июл 2013
Раздают: 55    Качают: 10
Скачать торрент
Скачать торрент
Описание торрента

СообщениеДобавлено: 24 июл 2013 

#77

Информация о фильме
Название: Аферисты
Год выхода: 1990
Жанр: Комедия
Режиссер: Всеволод Шиловский
В ролях: Мамука Кикалейшвили, Михаил Кокшенов, Станислав Садальский, Всеволод Шиловский, Римма Маркова, Нина Русланова, Михаил Пресняков, Вероника Изотова, Евгений Весник, Баадур Цуладзе, Лев Борисов, Роман Филиппов, Павел Винник, Владислав Демченко, Алексей Елизаветский, Евгений Москалёв, Вячеслав Горбунчиков, Владимир Ферапонтов, Фёдор Полевич, Нина Маслова, Георгий Куликов, Иван Турченков, Константин Карельских, Чеслав Сушкевич, Михаил Бочаров, Фёдор Валиков, Виктор Лазарев, Наталья Крачковская, Виктор Махмутов, Николай Сморчков, Ерванд Арзуманян, Татьяна Новицкая, Михаил Бирбраер, Андрей Щербович-Вечер, Игорь Класс, Мария Барабанова

О фильме:
Трое очень симпатичных, смешных и совсем не страшных негодяев собираются промышлять древними иконами. Для успеха им пришлось побывать и художниками, и лекторами, и святыми отцами...
Страна: СССР
Студия: Кинотоварищество на Таганке
Продолжительность: 01:18:20
Перевод: Оригинал

Файл
Кодек: MPEG2
Качество: SATRip
Видео: MPEG 2, 720x576 (4:3), 25.000 fps, 9 282 Kbps (0.845 bit/pixel)
Звук: MP2, 48.0 KHz, 2 ch, 192 Kbps, CBR

Семпл

Доп. информация: В раздаче присутствуют банеры с названием фильма (после рекламных вставок) и анонсом следующих передач.

Общее
Полное имя : G:TORENT2/AFERISTIh.1990.mpg
Формат : MPEG-PS
Размер файла : 5,00 Гбайт
Продолжительность : 1 ч. 18 м.
Общий поток : 9138 Кбит/сек

Видео
Идентификатор : 224 (0xE0)
Формат : MPEG Video
Версия формата : Version 2
Профиль формата : Main@Main
Параметр BVOP формата : Да
Параметр матрицы формата : По умолчанию
Продолжительность : 1 ч. 18 м.
Вид битрейта : Переменный
Битрейт : 8764 Кбит/сек
Номинальный битрейт : 9282 Кбит/сек
Ширина : 720 пикс.
Высота : 576 пикс.
Соотношение сторон : 4:3
Частота кадров : 25,000 кадр/сек
Стандарт вещания : PAL
Цветовое пространство : YUV
Подвыборка цветности : 4:2:0
Битовая глубина : 8 бит
Тип развёртки : Чересстрочная
Порядок развёртки : Верхнее поле первое
Метод сжатия : С потерями
Бит/(Пиксели*Кадры) : 0.845
Размер потока : 4,80 Гбайт (96%)

Аудио
Идентификатор : 192 (0xC0)
Формат : MPEG Audio
Версия формата : Version 1
Профиль формата : Layer 2
Продолжительность : 1 ч. 18 м.
Вид битрейта : Постоянный
Битрейт : 192 Кбит/сек
Каналы : 2 канала
Частота : 48,0 КГц
Метод сжатия : С потерями
Размер потока : 108 Мбайт (2%)





   Похожие торренты   Торрент   Размер 
В этой теме нет новых непрочитанных сообщений. Нереальные аферисты. Автоподставы (2016) SATRip

48 | 1

263.3 МБ

В этой теме нет новых непрочитанных сообщений. Аферисты в сетях [02x09] (2016) SATRip от Files-x

28 | 3

748.62 МБ

В этой теме нет новых непрочитанных сообщений. Аферисты в сетях [02x10] (2016) SATRip от Files-x

24 | 1

550.67 МБ

В этой теме нет новых непрочитанных сообщений. Аферисты в сетях [02x01-07] (2015) SATRip от Files-x

254 | 62

7.89 ГБ

В этой теме нет новых непрочитанных сообщений. Нереальные аферисты - Банковские карты (2016) SATRip

117 | 5

263.86 МБ

В этой теме нет новых непрочитанных сообщений. Среда обитания. Туристы и аферисты [эфир от 06.06] (2012) SATRip

0 | 3

558.77 МБ

В этой теме нет новых непрочитанных сообщений. Футбол. Чемпионат Мира. 1990 год. Камерун - СССР (1990) SATRip от MediaClub

97 | 34

1.45 ГБ




Вы не можете начинать темы
Вы не можете отвечать на сообщения
Вы не можете редактировать свои сообщения
Вы не можете удалять свои сообщения
Вы не можете добавлять вложения

Перейти:  
Для Мосгорсуда, Роскомнадзора и рекламодателей: mosgorsud-torrent[собачка]yandex.ru
 Вход
ppkBB3cker v.2 © 2008-2014 @ PPK
[ Time : 0.041s | 14 Queries | GZIP : On ]

Торрент трекер RUTOR.IN, Не можете зайти на rutor.org? Какой новый адрес рутор? Какое зеркало рутор? Не работает rutor.org и зеркала? Тогда наш торрент специально для вас. Rutor.in неофициальное зеркало rutor. В случае если у Вас заблокирован rutor или вдруг Вы не можете на него зайти, то Вы без труда сможете скачать бесплатно и без рекламы последние новинки кино, игр, сериалов и прочего у нас, на Rutor.in. Не нужно использовать прокси, чтобы зайти на рутор, достаточно воспользоваться нашим ресурсом. Все новые фильмы, игры, сериалы, книги и музыка за 2013 и 2014 годы через торрент бесплатно. Скачивайте фильмы в хорошем качестве, игры для пк, xbox, playstation без регистрации. У нас вы найдете новые Зарубежные сериалы и Русские сериалы 2013, 2014, 2015 годов. Оставайтесь с нами, качайте любимые фильмы, игры, сериалы, книги и музыку.