img image001 image001 image001 image001 image001 image001 image001 image001 image001 image001 image001 image001 image001 image001 image001

Planets Sun Sun Sun
Статистика раздачи
Автор: Снежана | Размер: 1.46 ГБ | Добавлен: 24 июл 2013
Раздают: 23    Качают: 6
Скачать торрент
Скачать торрент
Описание торрента

СообщениеДобавлено: 24 июл 2013 

#77

Информация о фильме
Название: Красная шапочка
Год выхода: 2012
Жанр: Комедия, мюзикл
Режиссер: Александр Игудин
В ролях: Юрий Стоянов, Андрей Данилко, Тимур Родригез, Елизавета Арзамасова, Николай Басков, Юрий Гальцев, Филипп Киркоров, Анастасия Стоцкая, Елена Степаненко, Елена Воробей, Борис Смолкин, Анна Семенович, Лолита Милявская

О фильме:
По традиции в канун Нового года на телеканале "Россия" – старая сказка на новый лад! Авторы новой музыкальной комедии изменили сюжетную линию классической сказки Шарля Перро, добавили новые непредсказуемые повороты и ввели неожиданных героев. Красной Шапочке надоело продавать пирожки, она бросает семейный бизнес и отправляется в большое путешествие. Все во имя мечты – стать звездой эстрады. На пути к успеху ей предстоит познакомиться с новыми друзьями и преодолеть козни врагов - Волка и Злой Мачехи. И у нее конечно же все получится!

Страна: Россия
Студия: ВГТРК
Продолжительность: 01:42:12
Перевод: не требуется

Файл
Кодек: MPEG4 / AVC
Качество: SATRip-AVC
Видео: 720x448@768x448, ~1785 Kbps, 25 fps
Звук: Русский - AC3, 256 Kbps, 2.0 Ch

H:VideoÒÂ-ìþçèêëûÊðàñíàÿ Øàïî÷êà (2012).mkv
General
Unique ID : 287835702046716838658706445421213171308 (0xD88B23C78B41FF099A861C529B64BE6C)
Complete name : H:VideoÒÂ-ìþçèêëûÊðàñíàÿ Øàïî÷êà (2012).mkv
Format : Matroska
Format version : Version 2
File size : 1.46 GiB
Duration : 1h 42mn
Overall bit rate : 2 046 Kbps
Writing application : HandBrake 0.9.8
Writing library : libmkv 0.6.5
Video #1
ID : 1
Format : AVC
Format/Info : Advanced Video Codec
Format profile : High@L3.1
Format settings, CABAC : Yes
Format settings, ReFrames : 12 frames
Codec ID : V_MPEG4/ISO/AVC
Duration : 1h 42mn
Bit rate : 1 785 Kbps
Width : 720 pixels
Height : 448 pixels
Display aspect ratio : 16:9
Frame rate : 25.000 fps
Color space : YUV
Chroma subsampling : 4:2:0
Bit depth : 8 bits
Scan type : Progressive
Bits/(Pixel*Frame) : 0.221
Stream size : 1.25 GiB (86%)
Writing library : x264 core 120
Encoding settings : cabac=1 / ref=12 / deblock=1:-2:-2 / analyse=0x3:0x133 / me=umh / subme=10 / psy=1 / psy_rd=1.00:0.00 / mixed_ref=1 / me_range=24 / chroma_me=1 / trellis=2 / 8x8dct=1 / cqm=0 / deadzone=21,11 / fast_pskip=0 / chroma_qp_offset=-2 / threads=12 / sliced_threads=0 / nr=0 / decimate=1 / interlaced=0 / bluray_compat=0 / constrained_intra=0 / bframes=16 / b_pyramid=2 / b_adapt=2 / b_bias=0 / direct=3 / weightb=1 / open_gop=0 / weightp=2 / keyint=250 / keyint_min=25 / scenecut=40 / intra_refresh=0 / rc_lookahead=50 / rc=2pass / mbtree=1 / bitrate=1785 / ratetol=1.0 / qcomp=0.60 / qpmin=3 / qpmax=69 / qpstep=4 / cplxblur=20.0 / qblur=0.5 / ip_ratio=1.40 / aq=1:1.00
Language : English
Default : Yes
Forced : No

Audio #2
ID : 2
Format : AC-3
Format/Info : Audio Coding 3
Mode extension : CM (complete main)
Codec ID : A_AC3
Duration : 1h 42mn
Bit rate mode : Constant
Bit rate : 256 Kbps
Channel(s) : 2 channels
Channel positions : Front: L R
Sampling rate : 48.0 KHz
Bit depth : 16 bits
Compression mode : Lossy
Stream size : 187 MiB (13%)
Default : Yes
Forced : No



   Похожие торренты   Торрент   Размер 
В этой теме нет новых непрочитанных сообщений. Красная шапочка (2012) SATRip

49 | 9

1.37 ГБ

В этой теме нет новых непрочитанных сообщений. Красная Шапочка и все, все, все / Червона Шапочка та всі, всі, всі (2008) DVDRip-AVC

5 | 2

1.45 ГБ

В этой теме нет новых непрочитанных сообщений. Красная Шапочка / Червона Шапочка (2008) DVDRip

10 | 8

1.39 ГБ

В этой теме нет новых непрочитанных сообщений. Жестокие игры: Красная Шапочка / Cruel Games: Red Riding Hood (2012) PC

32 | 4

656.81 МБ

В этой теме нет новых непрочитанных сообщений. Жестокие игры: Красная Шапочка / Cruel Games: Red Riding Hood (2012) PC

79 | 4

666.87 МБ

В этой теме нет новых непрочитанных сообщений. Красная Шапочка (1937) ТС

30 | 3

126.41 МБ

В этой теме нет новых непрочитанных сообщений. Красная шапочка / Red Riding Hood (2011) Blu-Ray

1 | 5

26.22 ГБ




Вы не можете начинать темы
Вы не можете отвечать на сообщения
Вы не можете редактировать свои сообщения
Вы не можете удалять свои сообщения
Вы не можете добавлять вложения

Перейти:  
Для Мосгорсуда, Роскомнадзора и рекламодателей: mosgorsud-torrent[собачка]yandex.ru
 Вход
ppkBB3cker v.2 © 2008-2014 @ PPK
[ Time : 0.049s | 14 Queries | GZIP : Off ]

Торрент трекер RUTOR.IN, Не можете зайти на rutor.org? Какой новый адрес рутор? Какое зеркало рутор? Не работает rutor.org и зеркала? Тогда наш торрент специально для вас. Rutor.in неофициальное зеркало rutor. В случае если у Вас заблокирован rutor или вдруг Вы не можете на него зайти, то Вы без труда сможете скачать бесплатно и без рекламы последние новинки кино, игр, сериалов и прочего у нас, на Rutor.in. Не нужно использовать прокси, чтобы зайти на рутор, достаточно воспользоваться нашим ресурсом. Все новые фильмы, игры, сериалы, книги и музыка за 2013 и 2014 годы через торрент бесплатно. Скачивайте фильмы в хорошем качестве, игры для пк, xbox, playstation без регистрации. У нас вы найдете новые Зарубежные сериалы и Русские сериалы 2013, 2014, 2015 годов. Оставайтесь с нами, качайте любимые фильмы, игры, сериалы, книги и музыку.