img image001 image001 image001 image001 image001 image001 image001 image001 image001 image001 image001 image001 image001 image001 image001

Planets Sun Sun Sun
Статистика раздачи
Автор: Снежана | Размер: 1.45 ГБ | Добавлен: 24 июл 2013
Раздают: 5    Качают: 2
Скачать торрент
Скачать торрент
Описание торрента

СообщениеДобавлено: 24 июл 2013 

#77

Информация о фильме
Название: Красная Шапочка и все, все, все
Оригинальное название: Червона Шапочка та всі, всі, всі
Год выхода: 2008
Жанр: Мюзикл, комедия
Режиссер: Семен Горов
В ролях: Настя Каменских и Потап, Тимоти, "Алиби", Сергей Галанин, "Ума Турман", Филипп Киркоров, Лайма Вайкуле, София Ротару, Ани Лорак, Юрий Горбунов, Сергей Горов, Виталий Линецкий

О фильме:
Такой «Красной шапочки» вы еще не видели! Теперь это не только знаменитая сказка Шарля Перро, но и бесшабашно-веселый современный новогодний мюзикл канала «1+1». Рассказом старой сказки на новый лад занялся мастер новогодних проектов - режиссер Семен Горов, создатель замечательных музыкальных комедий «Безумный день или женитьба Фигаро», «Золушка» и «Сорочинская ярмарка». По его версии, «Красная шапочка» - это история не о том, как волк обманул девочку и съел пирожки, бабушку и саму героиню, а о «большой и чистой любви, которой все возрасты покорны».

Страна: Украина
Студия: Gorov Studio
Продолжительность: 01:18:41
Перевод: не требуется

Файл
Кодек: MPEG4 / AVC
Качество: DVDRip-AVC
Видео: 720x432@768x432, ~2260 Kbps, 25 fps
Звук: Русский, Украинский - AC3, 384 Kbps, 5.1 Ch, 48000Hz
Субтитры: нет


H:VideoÒÂ-ìþçèêëû×åðâîíà Øàïî÷êà òà âñ³, âñ³, âñ³ (2008).mkv
General
Unique ID : 180423426639267694089839894938268866274 (0x87BC49BA9671B3DAB0E183504EAE16E2)
Complete name : H:VideoÒÂ-ìþçèêëû×åðâîíà Øàïî÷êà òà âñ³, âñ³, âñ³ (2008).mkv
Format : Matroska
Format version : Version 2
File size : 1.45 GiB
Duration : 1h 18mn
Overall bit rate : 2 646 Kbps
Encoded date : UTC 2013-01-04 16:22:11
Writing application : mkvmerge v3.4.0 ('Rapunzel') ñáîðêà îò May 15 2010 09:38:20
Writing library : libebml v0.8.0 + libmatroska v0.9.0

Video #1
ID : 1
Format : AVC
Format/Info : Advanced Video Codec
Format profile : High@L3.2
Format settings, CABAC : Yes
Format settings, ReFrames : 16 frames
Codec ID : V_MPEG4/ISO/AVC
Duration : 1h 18mn
Bit rate : 2 260 Kbps
Width : 720 pixels
Height : 432 pixels
Display aspect ratio : 16:9
Frame rate : 25.000 fps
Color space : YUV
Chroma subsampling : 4:2:0
Bit depth : 8 bits
Scan type : Progressive
Bits/(Pixel*Frame) : 0.291
Stream size : 1.21 GiB (83%)
Writing library : x264 core 120
Encoding settings : cabac=1 / ref=16 / deblock=1:-2:-2 / analyse=0x3:0x113 / me=umh / subme=10 / psy=1 / psy_rd=1.00:0.00 / mixed_ref=1 / me_range=16 / chroma_me=1 / trellis=2 / 8x8dct=1 / cqm=0 / deadzone=21,11 / fast_pskip=1 / chroma_qp_offset=-2 / threads=12 / sliced_threads=0 / nr=0 / decimate=1 / interlaced=0 / bluray_compat=0 / constrained_intra=0 / bframes=3 / b_pyramid=2 / b_adapt=2 / b_bias=0 / direct=3 / weightb=1 / open_gop=0 / weightp=2 / keyint=250 / keyint_min=25 / scenecut=40 / intra_refresh=0 / rc_lookahead=50 / rc=2pass / mbtree=1 / bitrate=2260 / ratetol=1.0 / qcomp=0.60 / qpmin=3 / qpmax=69 / qpstep=4 / cplxblur=20.0 / qblur=0.5 / ip_ratio=1.40 / aq=1:1.00
Default : Yes
Forced : No

Audio #2
ID : 2
Format : AC-3
Format/Info : Audio Coding 3
Mode extension : CM (complete main)
Codec ID : A_AC3
Duration : 1h 18mn
Bit rate mode : Constant
Bit rate : 384 Kbps
Channel(s) : 6 channels
Channel positions : Front: L C R, Side: L R, LFE
Sampling rate : 48.0 KHz
Bit depth : 16 bits
Compression mode : Lossy
Stream size : 216 MiB (15%)
Title : Русский, Украинский
Language : Russian
Default : Yes
Forced : No



   Похожие торренты   Торрент   Размер 
В этой теме нет новых непрочитанных сообщений. Красная Шапочка / Червона Шапочка (2008) DVDRip

10 | 8

1.39 ГБ

В этой теме нет новых непрочитанных сообщений. Петя и Красная Шапочка (1958) DVDRip от MediaClub | КПК

273 | 23

83.08 МБ

В этой теме нет новых непрочитанных сообщений. Красная шапочка / Little Red Riding Hood (1995) DVDRip | D

123 | 24

742.45 МБ

В этой теме нет новых непрочитанных сообщений. Красная Шапочка / Little Red Riding Hood (1997) DVDRip

2 | 3

255 МБ

В этой теме нет новых непрочитанных сообщений. Серый волк энд Красная шапочка (1990) DVDRip от MediaClub | КПК

213 | 14

117.28 МБ

В этой теме нет новых непрочитанных сообщений. Красная Шапочка (1937) ТС

30 | 3

126.41 МБ

В этой теме нет новых непрочитанных сообщений. Красная шапочка (2012) SATRip

49 | 9

1.37 ГБ




Вы не можете начинать темы
Вы не можете отвечать на сообщения
Вы не можете редактировать свои сообщения
Вы не можете удалять свои сообщения
Вы не можете добавлять вложения

Перейти:  
Для Мосгорсуда, Роскомнадзора и рекламодателей: mosgorsud-torrent[собачка]yandex.ru
 Вход
ppkBB3cker v.2 © 2008-2014 @ PPK
[ Time : 0.545s | 15 Queries | GZIP : Off ]

Торрент трекер RUTOR.IN, Не можете зайти на rutor.org? Какой новый адрес рутор? Какое зеркало рутор? Не работает rutor.org и зеркала? Тогда наш торрент специально для вас. Rutor.in неофициальное зеркало rutor. В случае если у Вас заблокирован rutor или вдруг Вы не можете на него зайти, то Вы без труда сможете скачать бесплатно и без рекламы последние новинки кино, игр, сериалов и прочего у нас, на Rutor.in. Не нужно использовать прокси, чтобы зайти на рутор, достаточно воспользоваться нашим ресурсом. Все новые фильмы, игры, сериалы, книги и музыка за 2013 и 2014 годы через торрент бесплатно. Скачивайте фильмы в хорошем качестве, игры для пк, xbox, playstation без регистрации. У нас вы найдете новые Зарубежные сериалы и Русские сериалы 2013, 2014, 2015 годов. Оставайтесь с нами, качайте любимые фильмы, игры, сериалы, книги и музыку.
cron