img image001 image001 image001 image001 image001 image001 image001 image001 image001 image001 image001 image001 image001 image001 image001

Planets Sun Sun Sun
Статистика раздачи
Автор: Снежана | Размер: 1.37 ГБ | Добавлен: 24 июл 2013
Раздают: 14    Качают: 11
Скачать торрент
Скачать торрент
Описание торрента

СообщениеДобавлено: 24 июл 2013 



Информация о фильме
Название: Приговор
Год выхода: 1994
Жанр: Детектив
Режиссер: Всеволод Шиловский
В ролях: Всеволод Шиловский, Вероника Изотова, Александра Захарова, Леонид Куравлёв, Вячеслав Езепов, Борис Щербаков, Владимир Стеклов, Лариса Гузеева, Пётр Меркурьев, Лили Воронова, Сергей Воробьев, Олег Гончаренок, Кэвин Виткос, Стивен Гудворт, Светлана Гуральская, Майкл Каск, Майкл Крупа, Гэрри Крэг, Анн Мэри Кэнту, Дэвид Ленсинг, Дэн Матена, Мэлоди Николс, Сергей Рытов, Роберт Сумма, Виктор Трахтенберг, Чарльз Хаммонд, Рене Хейгс, Дональд Хилл, Дороти Янг

О фильме:
Действие фильма происходит в Америке. Генеральный прокурор штата Тэд Талбот выносит смертный приговор Джиму Конли, ограбившему якобы банк и убившего охранника, но за 24 часа до казни поклявшегося в своей невиновности. После свершения приговора в отеле обнаруживают покончившего собой наркомана и письмо, в котором тот берет на себя вину покойного. Прокурор вынужден подать в отставку и оказывается в сложной ситуации неразрешимых проблем, связанных с с «желтой» прессой, приписывающей Талботу любовную связь с Джейн, вдовой Джима Конли, которую обнаружат в постели прокурора с перерезанным горлом. Вопросов будет много, и главный из них — куда делись украденные якобы Джимом Конли три миллиона долларов?...



Страна: Россия
Студия: Студия Голдфильм
Продолжительность: 01:33:24
Перевод: Оригинал

Файл
Кодек: XviD
Качество: DVDRip
Видео: 720x528, 1893 kbps, 25 fps
Звук: AC3, 2 ch, 192 kbps, 48.0 khz

General
Complete name : C:Prigovor.1994.XviD.DVDRip.avi
Format : AVI
Format/Info : Audio Video Interleave
File size : 1.37 GiB
Duration : 1h 33mn 24s
Overall bit rate : 2 094 Kbps
Writing application : VirtualDubMod 1.5.10.3 | www.virtualdub-fr.org || (build 2550/release)
Writing library : VirtualDubMod build 2550/release
Video #0
ID : 0
Format : MPEG-4 Visual
Format profile : Advanced Simple@L5
Format settings, BVOP : 2
Format settings, QPel : No
Format settings, GMC : No warppoints
Format settings, Matrix : Default (H.263)
Muxing mode : Packed bitstream
Codec ID : XVID
Codec ID/Hint : XviD
Duration : 1h 33mn 24s
Bit rate : 1 893 Kbps
Width : 720 pixels
Height : 528 pixels
Display aspect ratio : 4:3
Frame rate : 25.000 fps
Color space : YUV
Chroma subsampling : 4:2:0
Bit depth : 8 bits
Scan type : Progressive
Compression mode : Lossy
Bits/(Pixel*Frame) : 0.199
Stream size : 1.23 GiB (90%)
Writing library : XviD 1.2.1 (UTC 2008-12-04)
Audio #1
ID : 1
Format : AC-3
Format/Info : Audio Coding 3
Mode extension : CM (complete main)
Format settings, Endianness : Big
Codec ID : 2000
Duration : 1h 33mn 24s
Bit rate mode : Constant
Bit rate : 192 Kbps
Channel(s) : 2 channels
Channel positions : Front: L R
Sampling rate : 48.0 KHz
Bit depth : 16 bits
Compression mode : Lossy
Stream size : 128 MiB (9%)
Alignment : Split accross interleaves
Interleave, duration : 40 ms (1.00 video frame)
Interleave, preload duration : 500 ms



, , , ,


Релиз от:



   Похожие торренты   Торрент   Размер 
В этой теме нет новых непрочитанных сообщений. Приговор (1994) SATRip-AVC

39 | 3

1.49 ГБ

В этой теме нет новых непрочитанных сообщений. Приговор (2008) DVDRip от Gk-Club

14 | 4

1.37 ГБ

В этой теме нет новых непрочитанных сообщений. Приговор / The Statement (2003) DVDRip-AVC от BT-Club

0 | 3

2.32 ГБ

В этой теме нет новых непрочитанных сообщений. Приговор / La condanna (1991) DVDRip от Киномагия | P2

1 | 2

1.37 ГБ

В этой теме нет новых непрочитанных сообщений. Приговор времени / Past Perfect (1996) DVDRip

286 | 90

1.37 ГБ

В этой теме нет новых непрочитанных сообщений. Приговор времени / Past Perfect (1996) DVDRip от Киномагия

2 | 1

1.37 ГБ

В этой теме нет новых непрочитанных сообщений. Смертный приговор / Death Sentence (2007) DVDRip от Sanjar & NeoJet | КПК

27 | 7

334.58 МБ




Вы не можете начинать темы
Вы не можете отвечать на сообщения
Вы не можете редактировать свои сообщения
Вы не можете удалять свои сообщения
Вы не можете добавлять вложения

Перейти:  
Для Мосгорсуда, Роскомнадзора и рекламодателей: mosgorsud-torrent[собачка]yandex.ru
 Вход
ppkBB3cker v.2 © 2008-2014 @ PPK
[ Time : 0.044s | 15 Queries | GZIP : Off ]

cron