img image001 image001 image001 image001 image001 image001 image001 image001 image001 image001 image001 image001 image001 image001 image001

Planets Sun Sun Sun
Статистика раздачи
Автор: Снежана | Размер: 1.37 ГБ | Добавлен: 24 июл 2013
Раздают: 25    Качают: 12
Скачать торрент
Скачать торрент
Описание торрента

СообщениеДобавлено: 24 июл 2013 



Информация о фильме
Название: Бульварный роман
Год выхода: 1994
Жанр: Драма
Режиссер: Василий Панин
В ролях: Светлана Андропова, Вячеслав Тихонов, Анна Самохина, Нина Русланова, Спартак Мишулин, Евгений Моргунов, Валерий Носик, Тамара Носова, Владимир Самойлов, Лев Дуров, Любовь Соколова, Владимир Конкин, Евгений Жариков, Семен Фарада, Александр Пятков, Рудольф Рудин, Юрий Волков, Дмитрий Быстревский, Сергей Клановский, Валерий Смецкой, Галина Демина

О фильме:
Фильм снят по повести Валентина Пикуля "Ступай и не греши". В фильме рассказывается о реальных людям, событиях, произошедших в России в начале XX века. История юной красавицы Ольги, вышедшей из низов общества, насыщена трагическими поворотами Судьбы. Страстная, бескорыстная любовь становится ее роком. Измученная унижениями, она убивает своего любовника. Судебный процесс над Ольгой, о котором писала вся пресса, закончился сенсационным оправданием.



Страна: Россия, Украина
Студия: Ассоциация "Наше кино"
Продолжительность: 01:35:37
Перевод: Оригинал

Файл
Кодек: XviD
Качество: DVDRip
Видео: 720x528, 1845 kbps, 25 fps
Звук: AC3, 2 ch, 192 kbps, 48.0 khz

General
Complete name : C:Bulvarny.roman.1995.XviD.DVDRip.avi
Format : AVI
Format/Info : Audio Video Interleave
File size : 1.37 GiB
Duration : 1h 35mn 37s
Overall bit rate : 2 047 Kbps
Writing application : VirtualDubMod 1.5.10.3 | www.virtualdub-fr.org || (build 2550/release)
Writing library : VirtualDubMod build 2550/release
Video #0
ID : 0
Format : MPEG-4 Visual
Format profile : Advanced Simple@L5
Format settings, BVOP : 2
Format settings, QPel : No
Format settings, GMC : No warppoints
Format settings, Matrix : Default (H.263)
Muxing mode : Packed bitstream
Codec ID : XVID
Codec ID/Hint : XviD
Duration : 1h 35mn 37s
Bit rate : 1 845 Kbps
Width : 720 pixels
Height : 528 pixels
Display aspect ratio : 4:3
Frame rate : 25.000 fps
Color space : YUV
Chroma subsampling : 4:2:0
Bit depth : 8 bits
Scan type : Progressive
Compression mode : Lossy
Bits/(Pixel*Frame) : 0.194
Stream size : 1.23 GiB (90%)
Writing library : XviD 1.2.1 (UTC 2008-12-04)
Audio #1
ID : 1
Format : AC-3
Format/Info : Audio Coding 3
Mode extension : CM (complete main)
Format settings, Endianness : Big
Codec ID : 2000
Duration : 1h 35mn 37s
Bit rate mode : Constant
Bit rate : 192 Kbps
Channel(s) : 2 channels
Channel positions : Front: L R
Sampling rate : 48.0 KHz
Bit depth : 16 bits
Compression mode : Lossy
Stream size : 131 MiB (9%)
Alignment : Split accross interleaves
Interleave, duration : 40 ms (1.00 video frame)
Interleave, preload duration : 500 ms



, , , ,


Релиз от:



   Похожие торренты   Торрент   Размер 
В этой теме нет новых непрочитанных сообщений. Бульварный переплет (2003) DVDRip от Кинорадиомагия

23 | 8

1.37 ГБ

В этой теме нет новых непрочитанных сообщений. Роман «Alla Russa» / Роман в русском стиле (1993) TVRip

68 | 15

879.46 МБ

В этой теме нет новых непрочитанных сообщений. Роман, наводящий ужас / Кошмарный роман / Chilling Romance / Spellbound / Eerie Romance (2011) HDRip от BTT-TEAM

1 | 2

1.53 ГБ

В этой теме нет новых непрочитанных сообщений. Зимний роман (2004) DVDRip

31 | 2

697.98 МБ

В этой теме нет новых непрочитанных сообщений. Служебный роман (1977) DVDRip-AVC

71 | 5

1.45 ГБ

В этой теме нет новых непрочитанных сообщений. Сентиментальный роман (1976) DVDRip

7 | 6

1.06 ГБ

В этой теме нет новых непрочитанных сообщений. Служебный роман (1977) DVDRip

191 | 11

1.45 ГБ




Вы не можете начинать темы
Вы не можете отвечать на сообщения
Вы не можете редактировать свои сообщения
Вы не можете удалять свои сообщения
Вы не можете добавлять вложения

Перейти:  
Для Мосгорсуда, Роскомнадзора и рекламодателей: mosgorsud-torrent[собачка]yandex.ru
 Вход
ppkBB3cker v.2 © 2008-2014 @ PPK
[ Time : 0.043s | 15 Queries | GZIP : Off ]

cron