img image001 image001 image001 image001 image001 image001 image001 image001 image001 image001 image001 image001 image001 image001 image001

Planets Sun Sun Sun
Статистика раздачи
Автор: Снежана | Размер: 2.18 ГБ | Добавлен: 24 июл 2013
Раздают: 15    Качают: 20
Скачать торрент
Скачать торрент
Описание торрента

СообщениеДобавлено: 24 июл 2013 

«Ох уж эти мужчины!»



#77
Год выпуска: 2004
Страна: Россия
Студия: Кинокомпания CTB
Жанр: мелодрама, комедия, приключения
Продолжительность: 02:38:11 (6 ~ 00:26:25)

Перевод: не требуется
Субтитры: нет
Оригинальная аудиодорожка: русский

Режиссер: Валерий Зеленский

В ролях: Сергей Астахов, Арсений Ковальский, Любовь Тихомирова, Олег Каменщиков, Антон Макарский, Ольга Родионова, Эвклид Кюрдзидис, Анжела Голубева, Мария Юхананова, Андрей Кузнецов-Вечеслов (VII), Евгения Лютая...

Описание: Эротический Декамерон, или мужские откровения. Ох уж эти мужчины! Они давали клятву никогда не жениться, но связали себя узами брака. Теперь они вспоминают о былых похождениях! Самые откровенные признания четырех мачо в пикантной комедии по мотивам романов Ги де Мопассана…





Исходник: DVD9 R5
Тип релиза: DVDRip-AVC
Контейнер: MKV

Видео: 696x572@768x572 (4:3), 25 fps, H264 ~ 1778 kbps avg, 0.179 bit/pixel
Аудио: 48 kHz, AC3, 2 ch, 192.00 kbps

Раздача от:
01. Аллума
02. Мадлен
03. Анриэтта
04. Анэтта
05. Мари
06. Иветта

Общее
Полное имя : Lubovnye.avantyri.2004.DVDRip-AVC_[Youtracker]_by_AVP Studio.mkv
Формат : Matroska
Версия формата : Version 2
Размер файла : 385 Мбайт
Продолжительность : 27 м.
Общий поток : 1971 Кбит/сек
Дата кодирования : UTC 2013-01-05 19:44:51
Программа кодирования : mkvmerge v5.0.1 ('Es ist Sommer') built on Nov 6 2011 16:23:40
Библиотека кодирования : libebml v1.2.2 + libmatroska v1.3.0

Видео
Идентификатор : 1
Формат : AVC
Формат/Информация : Advanced Video Codec
Профиль формата : High@L4.1
Параметр CABAC формата : Да
Параметр ReFrames формата : 11 кадров
Идентификатор кодека : V_MPEG4/ISO/AVC
Продолжительность : 27 м.
Битрейт : 1778 Кбит/сек
Ширина : 696 пикселей
Высота : 572 пикселя
Соотношение сторон : 4:3
Соотношение сторон в оригинале : 4:3
Частота кадров : 25,000 кадров/сек
Цветовое пространство : YUV
Субдискретизация насыщенности : 4:2:0
Битовая глубина : 8 бит
Тип развёртки : Прогрессивная
Бит/(Пиксели*Кадры) : 0.179
Размер потока : 340 Мбайт (88%)
Библиотека кодирования : x264 core 119 r2106 07efeb4
Настройки программы : cabac=1 / ref=11 / deblock=1:-2:-1 / analyse=0x3:0x113 / me=umh / subme=9 / psy=1 / psy_rd=1.00:0.20 / mixed_ref=1 / me_range=32 / chroma_me=1 / trellis=1 / 8x8dct=1 / cqm=0 / deadzone=21,11 / fast_pskip=0 / chroma_qp_offset=-3 / threads=3 / sliced_threads=0 / nr=0 / decimate=0 / interlaced=0 / bluray_compat=0 / constrained_intra=0 / bframes=8 / b_pyramid=2 / b_adapt=2 / b_bias=0 / direct=3 / weightb=1 / open_gop=0 / weightp=2 / keyint=250 / keyint_min=25 / scenecut=40 / intra_refresh=0 / rc_lookahead=60 / rc=2pass / mbtree=1 / bitrate=1778 / ratetol=1.0 / qcomp=0.60 / qpmin=0 / qpmax=69 / qpstep=4 / cplxblur=20.0 / qblur=0.5 / ip_ratio=1.40 / aq=1:1.00
Default : Да
Forced : Нет

Аудио
Идентификатор : 2
Формат : AC-3
Формат/Информация : Audio Coding 3
Расширение режима : CM (complete main)
Идентификатор кодека : A_AC3
Продолжительность : 27 м.
Вид битрейта : Постоянный
Битрейт : 192 Кбит/сек
Каналы : 2 канала
Расположение каналов : Front: L R
Частота : 48,0 КГц
Битовая глубина : 16 бит
Метод сжатия : С потерями
Размер потока : 37,5 Мбайт (10%)
Default : Да
Forced : Нет





   Похожие торренты   Торрент   Размер 
В этой теме нет новых непрочитанных сообщений. Любовные авантюры [01-06 из 06] (2004) DVDRip от Youtracker

0 | 2

1.45 ГБ

В этой теме нет новых непрочитанных сообщений. Любовные авантюры [01-06 из 06] (2004) DVDRip от КинозалSAT

5 | 1

2.05 ГБ

В этой теме нет новых непрочитанных сообщений. Любовные авантюры [1-6 из 6] (2004) WEB-DLRip от Files-х

93 | 27

1.92 ГБ

В этой теме нет новых непрочитанных сообщений. Черкашин Н.А. - Авантюры открытого моря(2004) PDF

37 | 2

116.12 МБ

В этой теме нет новых непрочитанных сообщений. Любовные раны / Love Hurts (2009) DVDRip

1 | 3

695.82 МБ

В этой теме нет новых непрочитанных сообщений. Любовные грезы / Love Dream (1988) DVDRip-AVC | A

68 | 17

2.69 ГБ

В этой теме нет новых непрочитанных сообщений. Любовные истории / Historie milosne (1997) DVDRip от Hi-Films

1 | 5

690.39 МБ




Вы не можете начинать темы
Вы не можете отвечать на сообщения
Вы не можете редактировать свои сообщения
Вы не можете удалять свои сообщения
Вы не можете добавлять вложения

Перейти:  
Для Мосгорсуда, Роскомнадзора и рекламодателей: mosgorsud-torrent[собачка]yandex.ru
 Вход
ppkBB3cker v.2 © 2008-2014 @ PPK
[ Time : 0.072s | 14 Queries | GZIP : Off ]

Торрент трекер RUTOR.IN, Не можете зайти на rutor.org? Какой новый адрес рутор? Какое зеркало рутор? Не работает rutor.org и зеркала? Тогда наш торрент специально для вас. Rutor.in неофициальное зеркало rutor. В случае если у Вас заблокирован rutor или вдруг Вы не можете на него зайти, то Вы без труда сможете скачать бесплатно и без рекламы последние новинки кино, игр, сериалов и прочего у нас, на Rutor.in. Не нужно использовать прокси, чтобы зайти на рутор, достаточно воспользоваться нашим ресурсом. Все новые фильмы, игры, сериалы, книги и музыка за 2013 и 2014 годы через торрент бесплатно. Скачивайте фильмы в хорошем качестве, игры для пк, xbox, playstation без регистрации. У нас вы найдете новые Зарубежные сериалы и Русские сериалы 2013, 2014, 2015 годов. Оставайтесь с нами, качайте любимые фильмы, игры, сериалы, книги и музыку.